Zumbilândia: Atire Duas Vezes – Bluray 1080P – Dual Áudio

FICHA TÉCNICA

Título Original: Zombieland: Double Tap
Diretor: Ruben Fleischer
Genero: Comédia / Terror
Ano de Lançamento: 2019
Idioma: Português/Inglês
Legenda: Embutida PGS (selecionável)
Tamanho: 9.9 GB
Tempo de Duração: 99 Minutos
Resolução: 1920 x 1080
Áudio Codec: DTS 5.1 + AC3 5.1 / DTS 5.1
Formato: MKV
Release: Hiro360
Servidor: BRupload

Sinopse: Columbus (Jesse Eisenberg), Tallahassee (Woody Harrelson), Wichita (Emma Stone) e Little Rock (Abigail Breslin) irão da Casa Branca para o coração da América, enfrentando novos tipos de zumbis que evoluíram desde que o tempo se passou, bem como alguns novos sobreviventes humanos. Mas, acima de tudo, eles têm que enfrentar as dores crescentes de sua própria família sarcástica e improvisada.

banner

banner

Spoiler

Video
ID : 1
Format : AVC
Format/Info : Advanced Video Codec
Format profile : [email protected]
Format settings : CABAC / 1 Ref Frames
Format settings, CABAC : Yes
Format settings, Reference frames : 1 frame
Format settings, GOP : M=1, N=25
Codec ID : V_MPEG4/ISO/AVC
Duration : 1 h 39 min
Bit rate mode : Constant
Bit rate : 10.6 Mb/s
Width : 1 920 pixels
Height : 1 080 pixels
Display aspect ratio : 16:9
Frame rate mode : Constant
Frame rate : 23.976 (24000/1001) FPS
Color space : YUV
Chroma subsampling : 4:2:0
Bit depth : 8 bits
Scan type : Progressive
Bits/(Pixel*Frame) : 0.213
Stream size : 7.33 GiB (74%)
Language : English
Default : Yes
Forced : No

Audio #1
ID : 2
Format : DTS
Format/Info : Digital Theater Systems
Codec ID : A_DTS
Duration : 1 h 39 min
Bit rate mode : Constant
Bit rate : 1 509 kb/s
Channel(s) : 6 channels
Channel layout : C L R Ls Rs LFE
Sampling rate : 48.0 kHz
Frame rate : 93.750 FPS (512 SPF)
Bit depth : 24 bits
Compression mode : Lossy
Stream size : 1.04 GiB (11%)
Title : Surround 5.1
Language : English
Default : No
Forced : No

Audio #2
ID : 3
Format : DTS
Format/Info : Digital Theater Systems
Codec ID : A_DTS
Duration : 1 h 39 min
Bit rate mode : Constant
Bit rate : 1 509 kb/s
Channel(s) : 6 channels
Channel layout : C L R Ls Rs LFE
Sampling rate : 48.0 kHz
Frame rate : 93.750 FPS (512 SPF)
Bit depth : 16 bits
Compression mode : Lossy
Stream size : 1.04 GiB (11%)
Title : Surround 5.1
Language : Portuguese
Default : No
Forced : No

Audio #3
ID : 4
Format : AC-3
Format/Info : Audio Coding 3
Commercial name : Dolby Digital
Codec ID : A_AC3
Duration : 1 h 39 min
Bit rate mode : Constant
Bit rate : 640 kb/s
Channel(s) : 6 channels
Channel layout : L R C LFE Ls Rs
Sampling rate : 48.0 kHz
Frame rate : 31.250 FPS (1536 SPF)
Compression mode : Lossy
Stream size : 453 MiB (4%)
Title : AC3 5.1 BR Vinci
Language : Portuguese
Service kind : Complete Main
Default : No
Forced : No

Text #1
ID : 5
Format : PGS
Muxing mode : zlib
Codec ID : S_HDMV/PGS
Codec ID/Info : Picture based subtitle format used on BDs/HD-DVDs
Duration : 1 h 38 min
Bit rate : 42.4 kb/s
Count of elements : 3356
Stream size : 29.8 MiB (0%)
Language : Portuguese
Default : No
Forced : No

Text #2
ID : 6
Format : PGS
Muxing mode : zlib
Codec ID : S_HDMV/PGS
Codec ID/Info : Picture based subtitle format used on BDs/HD-DVDs
Duration : 1 h 37 min
Bit rate : 1 543 b/s
Count of elements : 116
Stream size : 1.08 MiB (0%)
Language : Portuguese
Default : Yes
Forced : No

Text #3
ID : 7
Format : PGS
Muxing mode : zlib
Codec ID : S_HDMV/PGS
Codec ID/Info : Picture based subtitle format used on BDs/HD-DVDs
Duration : 1 h 38 min
Bit rate : 45.7 kb/s
Count of elements : 3218
Stream size : 32.1 MiB (0%)
Language : Portuguese
Default : No
Forced : No

Text #4
ID : 8
Format : PGS
Muxing mode : zlib
Codec ID : S_HDMV/PGS
Codec ID/Info : Picture based subtitle format used on BDs/HD-DVDs
Duration : 1 h 38 min
Bit rate : 67.9 kb/s
Count of elements : 3585
Stream size : 48.0 MiB (0%)
Language : Portuguese
Default : No
Forced : No

bannerWoody Harrelson
Jesse Eisenberg
Emma Stone
Abigail Breslin

Bluray 1080P

banner

4K HDR Remux VS 4K HDR-U

Updated: 10 de janeiro de 2020 — 10:28

2 Comments

Add a Comment
  1. Você consegue trazer pra gente o primeiro nessa qualidade? Obrigado

    1. Vou postar daqui a pouco.

Deixe uma resposta

O seu endereço de e-mail não será publicado. Campos obrigatórios são marcados com *

Baixar Bluray © 2019 Frontier Theme