X-Men: Fênix Negra – 4K UHD 2160P DolbyHDR10+ – Dual Áudio

FICHA TÉCNICA

Título Original: Dark Phoenix
Diretor: Simon Kinberg
Genero: Ação / Aventura / Ficção
Ano de Lançamento: 2019
Idioma: Português/Inglês
Legenda: Embutida no rar
Tamanho: 52 GB
Tempo de Duração: 113 Minutos
Resolução: 3840 x 2160
Áudio Codec: AC3 5.1 / DTS-HD 7.1 + DTS 5.1
Formato: MKV
Release: Hiro360
Servidor: BRupload

Sinopse: Ambientado em 1992, Charles Xavier (James McAvoy) está lidando com o fato dos mutantes serem considerados heróis nacionais. Com o orgulho a flor da pele, ele envia sua equipe para perigosas missões, mas a primeira tarefa dos X-Men no espaço gera uma explosão solar, que acende uma força malévola e faminta por poder dentro de Jean Grey (Sophie Turner).

banner

banner

Spoiler

Complete name : E:\Dark.Phoenix.4K.UHD.2160p.DolbyHDR10plus.Dual.Hiro360.mkv
Format : Matroska
Format version : Version 4
File size : 51.8 GiB
Duration : 1 h 53 min
Overall bit rate mode : Variable
Overall bit rate : 65.1 Mb/s
Movie name : BaixarBluray.net – Alta Definição é Aqui
Encoded date : UTC 2019-09-05 22:25:07
Writing application : mkvmerge v35.0.0 (‘All The Love In The World’) 64-bit
Writing library : libebml v1.3.9 + libmatroska v1.5.2

Video
ID : 1
Format : HEVC
Format/Info : High Efficiency Video Coding
Codec ID : V_MPEGH/ISO/HEVC
Duration : 1 h 53 min
Bit rate : 58.1 Mb/s
Width : 3 840 pixels
Height : 2 160 pixels
Display aspect ratio : 16:9
Frame rate mode : Constant
Frame rate : 23.976 (24000/1001) FPS
Color space : YUV
Bits/(Pixel*Frame) : 0.292
Stream size : 46.3 GiB (89%)
Title : BaixarBluray.net – Alta Definição é Aqui
Default : Yes
Forced : No
Color primaries : BT.2020
Transfer characteristics : PQ
Matrix coefficients : BT.2020 non-constant

Audio #1
ID : 2
Format : DTS XLL
Format/Info : Digital Theater Systems
Commercial name : DTS-HD Master Audio
Codec ID : A_DTS
Duration : 1 h 53 min
Bit rate mode : Variable
Bit rate : 5 074 kb/s
Channel(s) : 8 channels
Channel layout : C L R LFE Lb Rb Lss Rss
Sampling rate : 48.0 kHz
Frame rate : 93.750 FPS (512 SPF)
Bit depth : 24 bits
Compression mode : Lossless
Stream size : 4.04 GiB (8%)
Title : Surround 7.1
Language : English
Default : Yes
Forced : No

Audio #2
ID : 3
Format : DTS
Format/Info : Digital Theater Systems
Codec ID : A_DTS
Duration : 1 h 53 min
Bit rate mode : Constant
Bit rate : 1 509 kb/s
Channel(s) : 6 channels
Channel layout : C L R Ls Rs LFE
Sampling rate : 48.0 kHz
Frame rate : 93.750 FPS (512 SPF)
Bit depth : 24 bits
Compression mode : Lossy
Stream size : 1.20 GiB (2%)
Title : Surround 5.1
Language : English
Default : No
Forced : No

Audio #3
ID : 4
Format : AC-3
Format/Info : Audio Coding 3
Commercial name : Dolby Digital
Codec ID : A_AC3
Duration : 1 h 53 min
Bit rate mode : Constant
Bit rate : 384 kb/s
Channel(s) : 6 channels
Channel layout : L R C LFE Ls Rs
Sampling rate : 48.0 kHz
Frame rate : 31.250 FPS (1536 SPF)
Bit depth : 16 bits
Compression mode : Lossy
Stream size : 313 MiB (1%)
Language : Portuguese
Service kind : Complete Main
Default : No
Forced : No

bannerSophie Turner … Jean Grey / Phoenix
Jennifer Lawrence … Raven / Mystique
James McAvoy … Professor Charles Xavier
Michael Fassbender … Erik Lehnsherr / Magneto

4K UHD 2160P DolbyHDR10+

banner

4K HDR Remux VS 4K HDR-U

Updated: 9 de setembro de 2019 — 09:00

8 Comments

Add a Comment
  1. hiro boa noite, testes o hd externo com ssd e mesmo assim da umas travadas, alguma sugestão para eu ver esses formatos sem travar ?

    1. Bom dia Flavio, eu realmente não sei dizer o motivo disso, pra mim roda tudo liso.

  2. teria como postar em outro servidor pois este servidor estou tendo problema para baixa claro se for possivel agradeceria bastante

  3. boa noite Hiro vou baixar esse filme hoje para assistir no meu receptor azamérica s2015 4k sou premium

  4. Boa noite amigo esse filme é Native 4K ou Upscaled 4K no seu site o tamanho dele é de 52 GB e em outro site na nete tem ele com 44.2 GB e fala ser Upscaled 4K

    1. Upscale modificado amigo.

  5. Flavio, uma sugestão para os travamento, usa o jdownloader2 e deixa o próprio aplicativo efetuar a descompactação, por que se você tentar pelo winrar ou winzip vai travar o filme, o meu estava acontecendo isso também, por que o próprio aplicativo faz a extração automática, só é preciso ter um pouco de paciência, espero ter ajudado.

Deixe uma resposta

O seu endereço de e-mail não será publicado. Campos obrigatórios são marcados com *

Baixar Bluray © 2019 Frontier Theme