Transformers: A Era da Extinção – 4K 2160p HDR-U – Dual Áudio

FICHA TÉCNICA

Título Original: Transformers: Age of Extinction
Diretor: Michael Bay
Genero: Ação / Aventura / Ficção
Ano de Lançamento: 2014
Idioma: Português/Inglês
Legenda: Embutida PGS (selecionável)
Tamanho: 77.8 GB
Tempo de Duração: 165 Minutos
Resolução: 3840 x 2160
Áudio Codec: AC3 5.1 / TrueHD 7.1+DTS 5.1
Formato: MKV
Release: Hiro360
Servidor: BRupload

Sinopse: Alguns anos após o grande confronto entre Autobots e Decepticons em Chicago, os gigantescos robôs alienígenas desapareceram. Eles são atualmente caçados pelos humanos, que não desejam passar por apuros novamente. Quando Cade (Mark Wahlberg) encontra um caminhão abandonado, ele jamais poderia imaginar que o veículo é na verdade Optimus Prime, o líder dos Autobots. Muito menos que, ao ajudar a trazê-lo de volta à vida, Cade e sua filha Tessa (Nicola Peltz) entrariam na mira das autoridades americanas.

banner

banner

Spoiler

Video
ID : 1
Format : HEVC
Format/Info : High Efficiency Video Coding
Codec ID : V_MPEGH/ISO/HEVC
Duration : 2 h 45 min
Bit rate : 61.1 Mb/s
Width : 3 840 pixels
Height : 2 160 pixels
Display aspect ratio : 16:9
Frame rate mode : Constant
Frame rate : 23.976 (24000/1001) FPS
Color space : YUV
Bits/(Pixel*Frame) : 0.307
Stream size : 70.4 GiB (91%)
Title : UHDCORE
Default : Yes
Forced : No
Color primaries : BT.2020
Transfer characteristics : PQ
Matrix coefficients : BT.2020 non-constant

Audio #1
ID : 2
Format : MLP FBA 16-ch
Format/Info : Meridian Lossless Packing FBA with 16-channel presentation
Commercial name : Dolby TrueHD with Dolby Atmos
Codec ID : A_TRUEHD
Duration : 2 h 45 min
Bit rate mode : Variable
Bit rate : 5 025 kb/s
Maximum bit rate : 8 262 kb/s
Channel(s) : 8 channels
Channel layout : L R C LFE Ls Rs Lb Rb
Sampling rate : 48.0 kHz
Frame rate : 1 200.000 FPS (40 SPF)
Compression mode : Lossless
Stream size : 5.80 GiB (7%)
Title : TrueHD Atmos 7.1
Language : English
Default : No
Forced : No
Number of dynamic objects : 11
Bed channel count : 1 channel
Bed channel configuration : LFE

Audio #2
ID : 3
Format : AC-3
Format/Info : Audio Coding 3
Commercial name : Dolby Digital
Codec ID : A_AC3
Duration : 2 h 45 min
Bit rate mode : Constant
Bit rate : 640 kb/s
Channel(s) : 6 channels
Channel layout : L R C LFE Ls Rs
Sampling rate : 48.0 kHz
Frame rate : 31.250 FPS (1536 SPF)
Compression mode : Lossy
Stream size : 756 MiB (1%)
Title : AC-3 5.1-EX
Language : English
Service kind : Complete Main
Default : No
Forced : No

Audio #3
ID : 5
Format : AC-3
Format/Info : Audio Coding 3
Commercial name : Dolby Digital
Codec ID : A_AC3
Duration : 2 h 45 min
Bit rate mode : Constant
Bit rate : 640 kb/s
Channel(s) : 6 channels
Channel layout : L R C LFE Ls Rs
Sampling rate : 48.0 kHz
Frame rate : 31.250 FPS (1536 SPF)
Compression mode : Lossy
Stream size : 756 MiB (1%)
Language : Portuguese
Service kind : Complete Main
Default : Yes
Forced : No

Text #1
ID : 4
Format : PGS
Muxing mode : zlib
Codec ID : S_HDMV/PGS
Codec ID/Info : Picture based subtitle format used on BDs/HD-DVDs
Duration : 2 h 43 min
Bit rate : 32.8 kb/s
Count of elements : 3866
Stream size : 38.4 MiB (0%)
Title : Portuguese
Language : Portuguese
Default : No
Forced : No

Text #2
ID : 6
Format : PGS
Muxing mode : zlib
Codec ID : S_HDMV/PGS
Codec ID/Info : Picture based subtitle format used on BDs/HD-DVDs
Duration : 2 h 37 min
Bit rate : 30.1 kb/s
Count of elements : 3758
Stream size : 33.8 MiB (0%)
Language : Portuguese
Default : Yes
Forced : No

bannerMark Wahlberg
Stanley Tucci
Kelsey Grammer
Nicola Peltz

Bluray 4K UHD 2160p HDR-U

banner

Updated: 10 de outubro de 2019 — 09:56

Deixe uma resposta

O seu endereço de e-mail não será publicado. Campos obrigatórios são marcados com *

Baixar Bluray © 2019 Frontier Theme