Shurato

FICHA TÉCNICA

Título Original: Shurato
Diretor: Toshihiko Nishikubo Takao Koyama
Genero: Luta\Aventura
Ano de Lançamento: 1989
Tipo de Áudio: Dual Áudio
Legenda: Embutida (selecionável)
Tamanho: 17,5 GB
Tempo de Duração: 23 minutos
Qualidade: BD-Rip 1080p
Formato: MKV
Número de Episódios: 38
Release: Gilgamesh
Servidor: BRupload

Sinopse: Foi uma série de anime para TV produzida pela Tatsunoko Productions,[3] posteriormente adaptada para mangá por Hiroshi Kawamoto. Tanto o anime quanto o mangá seguem as tentativas dos deuses de Asura em dominar o Mundo Celestial. Shurato, o personagem título, foi trazido para o campo de batalha e se torna um membro essencial dos Oito Guardiões do Povo de Deva e luta para resgatar a deusa Vishnu. Asura é representado por Indra, cujos subordinados engajam Shurato e seus companheiros em diversas ocasiões.

banner

BAIXE SEM LIMITES NA VELOCIDADE MÁXIMA: CLIQUE AQUI

bannerPersonagens de Anime

Bluray 1080P

Download Shurato - O Rei Shura [Shurato] Bluray 1080P

Mediainfo Shurato [Shurato - O Rei Shura] Bluray 1080P

Spoiler

Video
ID : 1
Format : AVC
Format/Info : Advanced Video Codec
Format profile : [email protected]
Format settings : CABAC / 5 Ref Frames
Format settings, CABAC : Yes
Format settings, Reference : 5 frames
Codec ID : V_MPEG4/ISO/AVC
Duration : 24 min 22 s
Bit rate : 2 409 kb/s
Width : 1 440 pixels
Height : 1 080 pixels
Display aspect ratio : 4:3
Frame rate mode : Constant
Frame rate : 29.970 (30000/1001) FPS
Color space : YUV
Chroma subsampling : 4:2:0
Bit depth : 8 bits
Scan type : Progressive
Bits/(Pixel*Frame) : 0.052
Stream size : 420 MiB (86%)
Title : Animes Recode Encode
Writing library : x264 core 142 r2431+42 c69a006 tMod [[email protected] X86_64]
Encoding settings : cabac=1 / ref=5 / deblock=1:0:0 / analyse=0x3:0x113 / me=umh / subme=8 / psy=1 / fade_compensate=0.00 / psy_rd=1.00:0.00 / mixed_ref=1 / me_range=16 / chroma_me=1 / trellis=1 / 8x8dct=1 / cqm=0 / deadzone=21,11 / fast_pskip=1 / chroma_qp_offset=-2 / threads=6 / lookahead_threads=1 / sliced_threads=0 / nr=0 / decimate=1 / interlaced=0 / bluray_compat=0 / constrained_intra=0 / fgo=0 / bframes=3 / b_pyramid=2 / b_adapt=2 / b_bias=0 / direct=3 / weightb=1 / open_gop=0 / weightp=2 / keyint=250 / keyint_min=25 / scenecut=40 / intra_refresh=0 / rc_lookahead=50 / rc=crf / mbtree=1 / crf=23.0000 / qcomp=0.60 / qpmin=0:0:0 / qpmax=69:69:69 / qpstep=4 / ip_ratio=1.40 / aq=1:1.00 / aq-sensitivity=10.00 / aq-factor=1.00:1.00:1.00 / aq2=0 / aq3=0
Language : English
Default : Yes
Forced : No

Audio #1
ID : 2
Format : MPEG Audio
Format version : Version 1
Format profile : Layer 3
Format settings : Joint stereo / MS Stereo
Codec ID : A_MPEG/L3
Codec ID/Hint : MP3
Duration : 24 min 22 s
Bit rate mode : Constant
Bit rate : 192 kb/s
Channel(s) : 2 channels
Sampling rate : 48.0 kHz
Frame rate : 41.667 FPS (1152 SPF)
Compression mode : Lossy
Delay relative to video : 22 ms
Stream size : 33.5 MiB (7%)
Title : 2.0 MP3-LC @ 192K
Writing library : LAME3.99.5
Language : Portuguese
Default : Yes
Forced : No

Audio #2
ID : 3
Format : MPEG Audio
Format version : Version 1
Format profile : Layer 3
Format settings : Joint stereo / MS Stereo
Codec ID : A_MPEG/L3
Codec ID/Hint : MP3
Duration : 24 min 22 s
Bit rate mode : Constant
Bit rate : 192 kb/s
Channel(s) : 2 channels
Sampling rate : 48.0 kHz
Frame rate : 41.667 FPS (1152 SPF)
Compression mode : Lossy
Stream size : 33.5 MiB (7%)
Title : 2.0 MP3-LC @ 192K
Writing library : LAME3.99.5
Language : Japanese
Default : No
Forced : No

ASSISTA SEUS FILMES EM 4K SEMPRE PELO HD EXTERNO USB 3.0. CASO QUEIRA ASSISTIR PELO PC, UTILIZE O MEDIA PLAYER CLASSIC + MADVR, NUNCA EXECUTE PELO VLC PLAYER.

Updated: 22 de janeiro de 2022 — 09:21

7 Comments

Add a Comment
  1. Opa ta postando animes??
    Vai postar tambem DRAGAN BALL Z ??

    1. Vou, fazer um post completo de dragon ball, dragon ball z, dragon ball GT, filmes de dragon ball e dragon ball z e dragon ball super, ver se consigo postar amanhã, divulguem o site pessoal, da muito trampo pro HIro lançar tanta coisa, eu to sofrendo para lançar só esse pouquinho kkk

      1. Prazer Gilgamesh.. Pretende também trazer os filmes e a série Shippuden de Naruto? Grande Abraço e parabéns pelas postagens..

        1. Fala Luis, sim, eu sempre gosto de trazer completo, é que não é fácil achar anime com qualidade, muitos links mortos, mas neste final de semana vou dar uma boa caçada nisso. O shippuden só dublaram as duas ou três primeiras temporadas, então não da pra trazer ele completo, por isso vou lançar ele inteiro legendado.

          1. Show brother! No caso pra mim não haverá problemas.. pois assisto sempre legendado.. Abraços!

  2. Ai sim hein.. meu anime favorito.. muito obrigado Gilgamesh

    1. On Shura Soaka, as ovas não tem sem legenda fixa, então só trarei a série clássica mesmo.

Deixe um comentário

Baixar Bluray © 2019 Frontier Theme