Shaft – 4K UHD 2160P DolbyHDR10+ – Dual Áudio

FICHA TÉCNICA

Título Original: Shaft
Diretor: Tim Story
Genero: Ação / Comédia
Ano de Lançamento: 2019
Idioma: Português/Inglês
Legenda: Embutida no rar
Tamanho: 52.3 GB
Tempo de Duração: 111 Minutos
Resolução: 3840 x 2160
Áudio Codec: AC3 5.1 / TrueHD 7.1 + AC3 5.1
Formato: MKV
Release: Hiro360
Servidor: BRupload

Sinopse: John Shaft III (Jessie Usher) é um agente do FBI que recorre à seu pai distanciado, o legendário John Shaft II (Samuel L. Jackson), após seu melhor amigo morrer sob circunstâncias suspeitas. Pai e filho precisam navegar pelo submundo do Harlem para resolver o crime, mas não sem a ajuda da primeira geração: John Shaft (Richard Roundtree).

banner

banner

Spoiler

Format : Matroska
Format version : Version 4 / Version 2
File size : 52.3 GiB
Duration : 1h 52mn
Overall bit rate mode : Variable
Overall bit rate : 66.8 Mbps
Movie name : BaixarBluray.net – Alta Definição é Aqui
Encoded date : UTC 2019-09-20 14:55:38
Writing application : mkvmerge v35.0.0 (‘All The Love In The World’) 64-bit
Writing library : libebml v1.3.9 + libmatroska v1.5.2

Video
ID : 1
Format : HEVC
Format/Info : High Efficiency Video Coding
Format profile : Main [email protected]@High
Codec ID : V_MPEGH/ISO/HEVC
Duration : 1h 51mn
Bit rate : 62.3 Mbps
Width : 3 840 pixels
Height : 2 160 pixels
Display aspect ratio : 16:9
Frame rate mode : Constant
Frame rate : 23.976 (24000/1001) fps
Standard : Component
Color space : YUV
Chroma subsampling : 4:2:0
Bit depth : 10 bits
Bits/(Pixel*Frame) : 0.313
Stream size : 48.6 GiB (93%)
Title : BaixarBluray.net – Alta Definição é Aqui
Default : Yes
Forced : No
Color range : Limited

Audio #1
ID : 2
Format : Atmos / TrueHD
Codec ID : A_TRUEHD
Duration : 1h 51mn
Bit rate mode : Variable
Bit rate : 3 622 Kbps
Maximum bit rate : 6 336 Kbps
Channel(s) : Object Based / 8 channels
Channel positions : Object Based / Front: L C R, Side: L R, Back: L R, LFE
Sampling rate : / 48.0 KHz
Frame rate : 1 200.000 fps (40 spf)
Compression mode : Lossless
Stream size : 2.82 GiB (5%)
Title : Surround 7.1
Language : English
Default : Yes
Forced : No

Audio #2
ID : 3
Format : AC-3
Format/Info : Audio Coding 3
Mode extension : CM (complete main)
Format settings, Endianness : Big
Codec ID : A_AC3
Duration : 1h 51mn
Bit rate mode : Constant
Bit rate : 640 Kbps
Channel(s) : 6 channels
Channel positions : Front: L C R, Side: L R, LFE
Sampling rate : 48.0 KHz
Frame rate : 31.250 fps (1536 spf)
Compression mode : Lossy
Stream size : 511 MiB (1%)
Title : Surround 5.1
Language : English
Default : No
Forced : No

Audio #3
ID : 4
Format : AC-3
Format/Info : Audio Coding 3
Mode extension : CM (complete main)
Format settings, Endianness : Big
Codec ID : A_AC3
Duration : 1h 52mn
Bit rate mode : Constant
Bit rate : 448 Kbps
Channel(s) : 6 channels
Channel positions : Front: L C R, Side: L R, LFE
Sampling rate : 48.0 KHz
Frame rate : 31.250 fps (1536 spf)
Compression mode : Lossy
Delay relative to video : 934ms
Stream size : 359 MiB (1%)
Language : Portuguese
Default : No
Forced : No

bannerSamuel L. Jackson … John Shaft
Jessie T. Usher … JJ Shaft
Richard Roundtree … John Shaft, Sr
Regina Hall … Maya Babanikos

Bluray 4K UHD

banner

4K HDR Remux VS 4K HDR-U

Updated: 21 de setembro de 2019 — 19:52

Deixe uma resposta

O seu endereço de e-mail não será publicado. Campos obrigatórios são marcados com *

Baixar Bluray © 2019 Frontier Theme