Zatch Bell!

Zatch Bell! – Takamine Kiyomaro, um cara deprimido que não se importa com ninguém, de repente recebe um pequeno demônio chamado Zatch Bell e se vê obrigado a cuidar dele. Mas ele não sabe que Zatch está envolvido em uma luta intensa para decidir quem será o governante do mundo dos demônios. Cada demônio pode escolher um mestre na Terra e com a ajuda dele derrotar outros demônios até que um saia vitorioso. Kiyomaro se torna o mestre de Zatch e, através de suas muitas batalhas, começa a entender a importância da amizade e da coragem.

Zatch Bell!

Título Original: Zatch Bell! / Konjiki no Gash Bell! / Golden Gash Bell!! / 金色のガッシュ!!
Qualidade: 1080P BDRIP
Áudio: Dual Áudio
Legenda: Embutida (selecionável)
 
1ª Temporada – 1080P BDRIP

Zatch Bell! Bluray 1080p Bluray Remux 4K UHD 2160p HDR

Spoiler

Video
ID : 1
Format : AVC
Format/Info : Advanced Video Codec
Format profile : High@L4.1
Format settings : CABAC / 4 Ref Frames
Format settings, CABAC : Yes
Format settings, Reference fra : 4 frames
Codec ID : V_MPEG4/ISO/AVC
Duration : 23 min 6 s
Bit rate : 6 800 kb/s
Width : 1 432 pixels
Height : 1 080 pixels
Display aspect ratio : 4:3
Frame rate mode : Constant
Frame rate : 23.976 (24000/1001) FPS
Color space : YUV
Chroma subsampling : 4:2:0
Bit depth : 8 bits
Scan type : Progressive
Bits/(Pixel*Frame) : 0.183
Stream size : 1.10 GiB (89%)
Writing library : x264 core 125 r2200 999b753
Encoding settings : cabac=1 / ref=4 / deblock=1:-1:-1 / analyse=0x3:0x113 / me=umh / subme=9 / psy=1 / psy_rd=1.00:0.00 / mixed_ref=1 / me_range=24 / chroma_me=1 / trellis=2 / 8x8dct=1 / cqm=0 / deadzone=21,11 / fast_pskip=1 / chroma_qp_offset=-2 / threads=18 / lookahead_threads=3 / sliced_threads=0 / nr=0 / decimate=1 / interlaced=0 / bluray_compat=0 / constrained_intra=0 / bframes=3 / b_pyramid=0 / b_adapt=2 / b_bias=0 / direct=3 / weightb=1 / open_gop=0 / weightp=2 / keyint=240 / keyint_min=23 / scenecut=40 / intra_refresh=0 / rc_lookahead=50 / rc=2pass / mbtree=1 / bitrate=6800 / ratetol=1.0 / qcomp=0.60 / qpmin=10 / qpmax=51 / qpstep=4 / cplxblur=20.0 / qblur=0.5 / vbv_maxrate=50000 / vbv_bufsize=50000 / nal_hrd=none / ip_ratio=1.40 / aq=1:1.00
Default : Yes
Forced : No

Audio #1
ID : 2
Format : AC-3
Format/Info : Audio Coding 3
Commercial name : Dolby Digital
Codec ID : A_AC3
Duration : 23 min 5 s
Bit rate mode : Constant
Bit rate : 192 kb/s
Channel(s) : 2 channels
Channel layout : L R
Sampling rate : 48.0 kHz
Frame rate : 31.250 FPS (1536 SPF)
Compression mode : Lossy
Stream size : 31.7 MiB (3%)
Title : Dublart
Language : Portuguese
Service kind : Complete Main
Default : Yes
Forced : No

Audio #2
ID : 3
Format : FLAC
Format/Info : Free Lossless Audio Codec
Codec ID : A_FLAC
Duration : 23 min 6 s
Bit rate mode : Variable
Bit rate : 669 kb/s
Channel(s) : 2 channels
Channel layout : L R
Sampling rate : 48.0 kHz
Frame rate : 11.719 FPS (4096 SPF)
Bit depth : 16 bits
Compression mode : Lossless
Stream size : 111 MiB (9%)
Title : FLAC 2.0
Writing library : libFLAC 1.2.1 (UTC 2007-09-17)
Language : Japanese
Default : No
Forced : No

Text #1
ID : 4
Format : ASS
Codec ID : S_TEXT/ASS
Codec ID/Info : Advanced Sub Station Alpha
Duration : 22 min 10 s
Bit rate : 40 b/s
Count of elements : 59
Compression mode : Lossless
Stream size : 6.61 KiB (0%)
Title : Aya Fansub – Forçada
Language : Portuguese
Default : Yes
Forced : No

Text #2
ID : 5
Format : ASS
Codec ID : S_TEXT/ASS
Codec ID/Info : Advanced Sub Station Alpha
Duration : 22 min 41 s
Bit rate : 163 b/s
Count of elements : 451
Compression mode : Lossless
Stream size : 27.2 KiB (0%)
Title : Aya Fansub – Completa
Language : Portuguese
Default : No
Forced : No

Menu
00:00:00.000 : en:Opening
00:01:30.023 : en:A Part
00:11:44.037 : en:B Part
00:21:05.064 : en:Ending
00:22:35.087 : en:Yokoku


Visite nosso fórum / Siga-nos no Twitter / BaixarTurbo.com

Zatch Bell! Bluray 1080p Bluray Remux 4K UHD 2160p HDR

Entrar

Não tem uma conta? Cadastre-se
Inscrever-se

Já tem uma conta? Entrar