Yu Yu Hakusho

O jovem Yusuke Urameshi estava tendo um dia comum: matando aula, discutindo com seus professores e arrumando briga com seu rival, Kuwabara. Mas, contrariando sua reputação de encrenqueiro, Yusuke revela ter um bom coração ao saltar na frente de um carro para salvar a vida de um menininho. E então, tudo muda. Guiado pela simpática Botan, Yusuke acaba sendo levado para o Mundo Espiritual. Lá, ele conhece o divertido Koenma, um governante de 700 anos preso no corpo de um bebê. E a grande surpresa é que ele tem um desafio para Yusuke, que pode restaurar a sua vida: chocar o ovo de um monstro espiritual. Ao mesmo tempo, o rapaz vai ter que ajudar Kuwabara, seu antigo desafeto, a lidar com uma nova gangue de inimigos. Depois, Koenma envia Yusuke ao mundo dos humanos para descobrir se alguém ainda quer a sua volta, afinal de contas…

Yu Yu Hakusho

Título Original: Yu Yu Hakusho
Qualidade: Remux 1080p
Áudio: Dual Áudio
Legenda: Embutida (selecionável)
 
Download Remux 1080p
 

Yu Yu Hakusho Bluray 1080p Bluray Remux 4K UHD 2160p HDR

Spoiler

General
Unique ID : 301943729528144084771685515850265244200 (0xE3283F3CD273EF1740F4580625A1B228)
Complete name : D:\Yu Yu Hakusho – 25th Anniversary – [4º Temporada]\Yu Yu Hakusho – 4º Temporada – EP. 095 – [REMUX].mkv
Format : Matroska
Format version : Version 4
File size : 5.34 GiB
Duration : 23 min 42 s
Overall bit rate mode : Variable
Overall bit rate : 32.2 Mb/s
Encoded date : UTC 2022-05-10 23:12:24
Writing application : mkvmerge v67.0.0 (‘Under Stars’) 64-bit
Writing library : libebml v1.4.2 + libmatroska v1.6.4
Attachments : BellGothicStd-Black.otf

Video
ID : 1
Format : AVC
Format/Info : Advanced Video Codec
Format profile : [email protected]
Format settings : CABAC / 4 Ref Frames
Format settings, CABAC : Yes
Format settings, Reference : 4 frames
Codec ID : V_MPEG4/ISO/AVC
Duration : 23 min 42 s
Bit rate mode : Variable
Bit rate : 30.3 Mb/s
Maximum bit rate : 39.0 Mb/s
Width : 1 920 pixels
Height : 1 080 pixels
Display aspect ratio : 16:9
Frame rate mode : Constant
Frame rate : 23.976 (24000/1001) FPS
Color space : YUV
Chroma subsampling : 4:2:0
Bit depth : 8 bits
Scan type : Progressive
Bits/(Pixel*Frame) : 0.610
Stream size : 5.02 GiB (94%)
Language : Japanese
Default : Yes
Forced : No
Color range : Limited
Color primaries : BT.709
Transfer characteristics : BT.709
Matrix coefficients : BT.709

Audio #1
ID : 2
Format : AC-3
Format/Info : Audio Coding 3
Commercial name : Dolby Digital
Codec ID : A_AC3
Duration : 23 min 42 s
Bit rate mode : Constant
Bit rate : 192 kb/s
Channel(s) : 2 channels
Channel layout : L R
Sampling rate : 48.0 kHz
Frame rate : 31.250 FPS (1536 SPF)
Compression mode : Lossy
Stream size : 32.6 MiB (1%)
Title : Manchete – [Créditos: Harlley e ald2001]
Language : Portuguese
Service kind : Complete Main
Default : Yes
Forced : No

Audio #2
ID : 3
Format : AC-3
Format/Info : Audio Coding 3
Commercial name : Dolby Digital
Codec ID : A_AC3
Duration : 23 min 42 s
Bit rate mode : Constant
Bit rate : 192 kb/s
Channel(s) : 2 channels
Channel layout : L R
Sampling rate : 48.0 kHz
Frame rate : 31.250 FPS (1536 SPF)
Compression mode : Lossy
Stream size : 32.6 MiB (1%)
Title : DVD’s da PlayArte – [Remasterizado por YusukeFLA]
Language : Portuguese
Service kind : Complete Main
Default : No
Forced : Yes

Audio #3
ID : 4
Format : PCM
Format settings : Little / Signed
Codec ID : A_PCM/INT/LIT
Duration : 23 min 42 s
Bit rate mode : Constant
Bit rate : 1 536 kb/s
Channel(s) : 2 channels
Sampling rate : 48.0 kHz
Frame rate : 200.000 FPS (240 SPF)
Bit depth : 16 bits
Stream size : 260 MiB (5%)
Language : Japanese
Default : No
Forced : No

Text
ID : 5
Format : ASS
Codec ID : S_TEXT/ASS
Codec ID/Info : Advanced Sub Station Alpha
Duration : 23 min 19 s
Bit rate : 300 b/s
Frame rate : 0.236 FPS
Count of elements : 330
Compression mode : Lossless
Stream size : 51.4 KiB (0%)
Title : PUNCH! – [MetalRaphael e Harlley]
Language : Portuguese
Default : Yes
Forced : No


Visite nosso fórum / Siga-nos no Twitter / BaixarTurbo.com

Yu Yu Hakusho Bluray 1080p Bluray Remux 4K UHD 2160p HDR

Yu Yu Hakusho, Yu Yu Hakusho, download, baixar, dublado, dual audio

Entrar

Não tem uma conta? Cadastre-se
Inscrever-se

Já tem uma conta? Entrar