ThunderCats

As aventuras de um grupo de humanoides felinos do planeta Thundera. Quando o planeta moribundo encontra seu fim, os ThunderCats são forçados a abandonar sua terra natal. Em seu novo planeta, eles precisam lutar contra Mumm-Ra para defender seu lar.

Thundercats

Título Original: Thundercats
Qualidade: Upscale 1080p
Áudio: Dual Áudio
Legenda: Embutida (selecionável)
 
Download UPSCALE 1080p
 

Thundercats Bluray 1080p Bluray Remux 4K UHD 2160p HDR

Spoiler

General
Unique ID : 128720129243971190508168225797560957980 (0x60D6985ACF1CFAFF6AC7A82041DD7C1C)
Complete name : D:\ThunderCats – 03ª Temporada – 1988 – 1080p – Upscale\02 A Volta às Origens – Parte II.mkv
Format : Matroska
Format version : Version 4
File size : 578 MiB
Duration : 22 min 15 s
Overall bit rate : 3 632 kb/s
Encoded date : UTC 2021-07-06 22:31:57
Writing application : mkvmerge v56.1.0 (‘My Friend’) 64-bit
Writing library : libebml v1.4.2 + libmatroska v1.6.4

Video
ID : 1
Format : AVC
Format/Info : Advanced Video Codec
Format profile : Main@L4.1
Format settings : CABAC / 4 Ref Frames
Format settings, CABAC : Yes
Format settings, Reference : 4 frames
Codec ID : V_MPEG4/ISO/AVC
Duration : 22 min 15 s
Bit rate : 3 209 kb/s
Width : 1 440 pixels
Height : 1 080 pixels
Display aspect ratio : 4:3
Frame rate mode : Constant
Frame rate : 23.976 (24000/1001) FPS
Color space : YUV
Chroma subsampling : 4:2:0
Bit depth : 8 bits
Scan type : Progressive
Bits/(Pixel*Frame) : 0.086
Stream size : 516 MiB (89%)
Writing library : x264 core 163 r3059+11 1aa8b82 [Mod by Patman]
Encoding settings : cabac=1 / ref=3 / deblock=1:0:0 / analyse=0x1:0x111 / me=hex / subme=7 / psy=0 / mixed_ref=1 / me_range=16 / chroma_me=1 / trellis=1 / 8x8dct=0 / cqm=0 / deadzone=21,11 / fast_pskip=1 / chroma_qp_offset=0 / threads=6 / lookahead_threads=1 / sliced_threads=0 / nr=0 / decimate=1 / interlaced=0 / bluray_compat=0 / constrained_intra=0 / bframes=3 / b_pyramid=2 / b_adapt=1 / b_bias=0 / direct=1 / weightb=1 / open_gop=0 / weightp=2 / keyint=250 / keyint_min=23 / scenecut=40 / intra_refresh=0 / rc_lookahead=40 / rc=abr / mbtree=1 / bitrate=3209 / ratetol=1.0 / qcomp=0.60 / qpmin=0 / qpmax=69 / qpstep=4 / ip_ratio=1.40 / aq=1:0.00
Default : Yes
Forced : No
Color range : Limited
Color primaries : BT.709
Transfer characteristics : BT.709
Matrix coefficients : BT.709

Audio #1
ID : 2
Format : AC-3
Format/Info : Audio Coding 3
Commercial name : Dolby Digital
Codec ID : A_AC3
Duration : 22 min 15 s
Bit rate mode : Constant
Bit rate : 192 kb/s
Channel(s) : 2 channels
Channel layout : L R
Sampling rate : 44.1 kHz
Frame rate : 28.711 FPS (1536 SPF)
Compression mode : Lossy
Stream size : 30.6 MiB (5%)
Language : Portuguese
Service kind : Complete Main
Default : Yes
Forced : Yes

Audio #2
ID : 3
Format : AC-3
Format/Info : Audio Coding 3
Commercial name : Dolby Digital
Codec ID : A_AC3
Duration : 22 min 14 s
Bit rate mode : Constant
Bit rate : 192 kb/s
Channel(s) : 2 channels
Channel layout : L R
Sampling rate : 48.0 kHz
Frame rate : 31.250 FPS (1536 SPF)
Compression mode : Lossy
Stream size : 30.5 MiB (5%)
Title : Stereo
Language : English
Service kind : Complete Main
Default : No
Forced : No

Text
ID : 4
Format : VobSub
Muxing mode : zlib
Codec ID : S_VOBSUB
Codec ID/Info : Picture based subtitle format used on DVDs
Duration : 21 min 24 s
Bit rate : 4 228 b/s
Frame rate : 0.209 FPS
Count of elements : 268
Stream size : 663 KiB (0%)
Language : English
Default : No
Forced : No

Menu
00:00:00.000 : :Chapter 1
00:01:46.773 : :Chapter 2
00:12:18.571 : :Chapter 3
00:20:54.920 : :Chapter 4
00:21:24.950 : :Chapter 5


Visite nosso fórum / Siga-nos no Twitter / BaixarTurbo.com

Thundercats Bluray 1080p Bluray Remux 4K UHD 2160p HDR

Entrar

Não tem uma conta? Cadastre-se
Inscrever-se

Já tem uma conta? Entrar