Shurato

Conta a história de dois amigos de infância, Shurato Hidaka e Gai Kuroki, que são levados a um cruel destino que mudará completamente suas vidas. No meio de uma luta entre eles num campeonato de artes marciais, os dois são teletransportados ao Tenkukai. Após despertar nesse mundo, Shurato descobre que é a reencarnação de um Deus Deva, o lado do bem que mantém o equilíbrio e a paz tanto no Tenkukai quanto no mundo dos humanos, e que seu amigo Gai se converteu em um ser maligno, que deseja inclusive matar seu próprio amigo. A partir daí, começa uma grande aventura e inúmeros desafios para impedir que o Tenkukai seja destruído pelas forças malignas, e Shurato, sem entender nada, é obrigado a se jogar no meio desta terrível batalha e a enfrentar seu querido amigo Gai.

Shurato

Título Original: Shurato
Qualidade: Bluray 1080p
Áudio: Dual Áudio
Legenda: Embutida (selecionável)

 
Download Bluray 1080p
 

Shurato Bluray 1080p Bluray Remux 4K UHD 2160p HDR

Spoiler

General
Unique ID : 229263867536515017022257416562251015958 (0xAC7A9D6144EAB00EA42517116E7E2716)
Complete name : D:\Shurato 1080P\Shurato-E01-HDRIP-1080p-byNanda.mkv
Format : Matroska
Format version : Version 4
File size : 487 MiB
Duration : 24 min 22 s
Overall bit rate : 2 795 kb/s
Encoded date : UTC 2015-09-04 13:47:28
Writing application : mkvmerge v8.1.0 (‘Psychedelic Postcard’) 64bit
Writing library : libebml v1.3.1 + libmatroska v1.4.2

Video
ID : 1
Format : AVC
Format/Info : Advanced Video Codec
Format profile : High@L4.2
Format settings : CABAC / 5 Ref Frames
Format settings, CABAC : Yes
Format settings, Reference : 5 frames
Codec ID : V_MPEG4/ISO/AVC
Duration : 24 min 22 s
Bit rate : 2 409 kb/s
Width : 1 440 pixels
Height : 1 080 pixels
Display aspect ratio : 4:3
Frame rate mode : Constant
Frame rate : 29.970 (30000/1001) FPS
Color space : YUV
Chroma subsampling : 4:2:0
Bit depth : 8 bits
Scan type : Progressive
Bits/(Pixel*Frame) : 0.052
Stream size : 420 MiB (86%)
Title : Animes Recode Encode
Writing library : x264 core 142 r2431+42 c69a006 tMod [8-bit@all X86_64]
Encoding settings : cabac=1 / ref=5 / deblock=1:0:0 / analyse=0x3:0x113 / me=umh / subme=8 / psy=1 / fade_compensate=0.00 / psy_rd=1.00:0.00 / mixed_ref=1 / me_range=16 / chroma_me=1 / trellis=1 / 8x8dct=1 / cqm=0 / deadzone=21,11 / fast_pskip=1 / chroma_qp_offset=-2 / threads=6 / lookahead_threads=1 / sliced_threads=0 / nr=0 / decimate=1 / interlaced=0 / bluray_compat=0 / constrained_intra=0 / fgo=0 / bframes=3 / b_pyramid=2 / b_adapt=2 / b_bias=0 / direct=3 / weightb=1 / open_gop=0 / weightp=2 / keyint=250 / keyint_min=25 / scenecut=40 / intra_refresh=0 / rc_lookahead=50 / rc=crf / mbtree=1 / crf=23.0000 / qcomp=0.60 / qpmin=0:0:0 / qpmax=69:69:69 / qpstep=4 / ip_ratio=1.40 / aq=1:1.00 / aq-sensitivity=10.00 / aq-factor=1.00:1.00:1.00 / aq2=0 / aq3=0
Language : English
Default : Yes
Forced : No

Audio #1
ID : 2
Format : MPEG Audio
Format version : Version 1
Format profile : Layer 3
Format settings : Joint stereo / MS Stereo
Codec ID : A_MPEG/L3
Codec ID/Hint : MP3
Duration : 24 min 22 s
Bit rate mode : Constant
Bit rate : 192 kb/s
Channel(s) : 2 channels
Sampling rate : 48.0 kHz
Frame rate : 41.667 FPS (1152 SPF)
Compression mode : Lossy
Delay relative to video : 22 ms
Stream size : 33.5 MiB (7%)
Title : 2.0 MP3-LC @ 192K
Writing library : LAME3.99.5
Language : Portuguese
Default : Yes
Forced : No

Audio #2
ID : 3
Format : MPEG Audio
Format version : Version 1
Format profile : Layer 3
Format settings : Joint stereo / MS Stereo
Codec ID : A_MPEG/L3
Codec ID/Hint : MP3
Duration : 24 min 22 s
Bit rate mode : Constant
Bit rate : 192 kb/s
Channel(s) : 2 channels
Sampling rate : 48.0 kHz
Frame rate : 41.667 FPS (1152 SPF)
Compression mode : Lossy
Stream size : 33.5 MiB (7%)
Title : 2.0 MP3-LC @ 192K
Writing library : LAME3.99.5
Language : Japanese
Default : No
Forced : No

Text
ID : 4
Format : UTF-8
Codec ID : S_TEXT/UTF8
Codec ID/Info : UTF-8 Plain Text
Duration : 22 min 41 s
Bit rate : 37 b/s
Frame rate : 0.155 FPS
Count of elements : 211
Stream size : 6.17 KiB (0%)
Language : Portuguese
Default : No
Forced : No


Visite nosso fórum / Siga-nos no Twitter / BaixarTurbo.com

Entrar

Não tem uma conta? Cadastre-se
Inscrever-se

Já tem uma conta? Entrar