Scooby Doo, Cadê Você?

Scooby Doo, Cadê Você? – Uma série que segue os muitos mistérios da Mystery Gang, que consiste de Fred, Daphne, Velma, Salsicha e Scooby. Juntos, eles viajam ao redor do mundo, sempre em busca de um mistério a ser resolvido.

Scooby Doo, Cadê Você?

Título Original: Scooby-Doo, Where Are You!
Qualidade: Remux
Áudio: Dual Áudio
Legenda: Embutida (selecionável)
 
1ª Temporada – Bluray 1080P Remux
 
2ª Temporada – Bluray 1080P Remux
 

Scooby Doo, Cadê Você? Bluray 1080p Bluray Remux 4K UHD 2160p HDR

Spoiler

Video
ID : 1
Format : AVC
Format/Info : Advanced Video Codec
Format profile : High@L4.1
Format settings : CABAC / 4 Ref Frames
Format settings, CABAC : Yes
Format settings, Reference fra : 4 frames
Format settings, GOP : M=1, N=12
Codec ID : V_MPEG4/ISO/AVC
Duration : 22 min 15 s
Bit rate mode : Variable
Bit rate : 10.6 Mb/s
Maximum bit rate : 11.0 Mb/s
Width : 1 920 pixels
Height : 1 080 pixels
Display aspect ratio : 16:9
Frame rate mode : Constant
Frame rate : 23.976 (24000/1001) FPS
Color space : YUV
Chroma subsampling : 4:2:0
Bit depth : 8 bits
Scan type : Progressive
Bits/(Pixel*Frame) : 0.212
Stream size : 1.64 GiB (95%)
Language : English
Default : No
Forced : No

Audio #1
ID : 2
Format : AC-3
Format/Info : Audio Coding 3
Commercial name : Dolby Digital
Codec ID : A_AC3
Duration : 22 min 15 s
Bit rate mode : Constant
Bit rate : 192 kb/s
Channel(s) : 1 channel
Channel layout : C
Sampling rate : 48.0 kHz
Frame rate : 31.250 FPS (1536 SPF)
Compression mode : Lossy
Stream size : 30.6 MiB (2%)
Title : Dublagem Clássica – Dublasom Guanabara
Language : Portuguese
Service kind : Complete Main
Default : Yes
Forced : No

Audio #2
ID : 3
Format : AC-3
Format/Info : Audio Coding 3
Commercial name : Dolby Digital
Codec ID : A_AC3
Duration : 22 min 15 s
Bit rate mode : Constant
Bit rate : 192 kb/s
Channel(s) : 2 channels
Channel layout : L R
Sampling rate : 48.0 kHz
Frame rate : 31.250 FPS (1536 SPF)
Compression mode : Lossy
Stream size : 30.6 MiB (2%)
Title : Stereo
Language : English
Service kind : Complete Main
Default : No
Forced : No

Audio #3
ID : 4
Format : AC-3
Format/Info : Audio Coding 3
Commercial name : Dolby Digital
Codec ID : A_AC3
Duration : 22 min 15 s
Bit rate mode : Constant
Bit rate : 192 kb/s
Channel(s) : 2 channels
Channel layout : L R
Sampling rate : 48.0 kHz
Frame rate : 31.250 FPS (1536 SPF)
Compression mode : Lossy
Stream size : 30.6 MiB (2%)
Title : Stereo
Language : French
Service kind : Complete Main
Default : No
Forced : No

Text #1
ID : 5
Format : UTF-8
Codec ID : S_TEXT/UTF8
Codec ID/Info : UTF-8 Plain Text
Duration : 21 s 249 ms
Bit rate : 88 b/s
Count of elements : 6
Stream size : 235 Bytes (0%)
Title : Forçada
Language : Portuguese
Default : Yes
Forced : Yes

Text #2
ID : 6
Format : PGS
Muxing mode : zlib
Codec ID : S_HDMV/PGS
Codec ID/Info : Picture based subtitle format used on BDs/HD-DVDs
Duration : 21 min 52 s
Bit rate : 27.5 kb/s
Count of elements : 472
Stream size : 4.30 MiB (0%)
Language : English
Default : No
Forced : No

Text #3
ID : 7
Format : PGS
Muxing mode : zlib
Codec ID : S_HDMV/PGS
Codec ID/Info : Picture based subtitle format used on BDs/HD-DVDs
Duration : 19 min 53 s
Bit rate : 26.0 kb/s
Count of elements : 374
Stream size : 3.70 MiB (0%)
Language : French
Default : No
Forced : No


Visite nosso fórum / Siga-nos no Twitter / BaixarTurbo.com

Scooby Doo, Cadê Você? Bluray 1080p Bluray Remux 4K UHD 2160p HDR

Entrar

Não tem uma conta? Cadastre-se
Inscrever-se

Já tem uma conta? Entrar