Samurai Warriors

Milhares de anos atrás, o imperador do mal Talpa pretendia conquistar a Terra. Derrotado, ele foi banido para o Reino Nether e sua armadura foi dividida em nove partes. Agora, ele voltou a conquistar a Terra, depois de ter recuperado 4 partes. As outras 5 estão na posse das pessoas que são a única esperança de pará-lo: The Warriors Ronin.
Milhares de anos atrás, o imperador do mal Talpa pretendia conquistar a Terra. Derrotado, ele foi banido para o Reino Nether e sua armadura foi dividida em nove partes. Agora, ele voltou a conquistar a Terra, depois de ter recuperado 4 partes. As outras 5 estão na posse das pessoas que são a única esperança de pará-lo: The Warriors Ronin.

Samurai Warriors

Título Original: Samurai Warriors
Qualidade: Bluray 1080p / Remux 1080p
Áudio: Dual Áudio
Legenda: Embutida (selecionável)
Adicionado REMUX Dual Áudio, também adicionei as OVAS em REMUX, porém elas são legendadas, não existe dublagem para as OVAS.
 
Download Bluray 1080p
Download Bluray REMUX 1080p
Download OVAS Bluray REMUX 1080p
 

Samurai Warriors Bluray 1080p Bluray Remux 4K UHD 2160p HDR

Spoiler

General
Unique ID : 163867441077596744020223993392408766394 (0x7B47B89E79BFA4E5F9623408AB5F27BA)
Complete name : D:\Samurai Warriors [BDRip 1080p] [Dual-Audio]\Yoroiden.Samurai.Troopers.S01E02.A.Glória.de.Demon.1080p.Bluray.-HenryKr.mkv
Format : Matroska
Format version : Version 4
File size : 572 MiB
Duration : 25 min 17 s
Overall bit rate : 3 163 kb/s
Encoded date : UTC 2019-12-01 05:21:32
Writing application : mkvmerge v40.0.0 (‘Old Town Road + Pony’) 64-bit
Writing library : libebml v1.3.9 + libmatroska v1.5.2 / Lavf58.20.100

Video
ID : 1
Format : AVC
Format/Info : Advanced Video Codec
Format profile : High@L4
Format settings : CABAC / 1 Ref Frames
Format settings, CABAC : Yes
Format settings, Reference : 1 frame
Codec ID : V_MPEG4/ISO/AVC
Duration : 25 min 16 s
Bit rate : 2 779 kb/s
Width : 1 440 pixels
Height : 1 080 pixels
Display aspect ratio : 4:3
Frame rate mode : Constant
Frame rate : 23.976 (24000/1001) FPS
Color space : YUV
Chroma subsampling : 4:2:0
Bit depth : 8 bits
Scan type : Progressive
Bits/(Pixel*Frame) : 0.075
Stream size : 502 MiB (88%)
Writing library : x264 core 155 r2901 7d0ff22
Default : Yes
Forced : No
Color range : Limited
Color primaries : BT.709
Transfer characteristics : BT.709
Matrix coefficients : BT.709

Audio #1
ID : 2
Format : AC-3
Format/Info : Audio Coding 3
Commercial name : Dolby Digital
Codec ID : A_AC3
Duration : 25 min 16 s
Bit rate mode : Constant
Bit rate : 192 kb/s
Channel(s) : 2 channels
Channel layout : L R
Sampling rate : 44.1 kHz
Frame rate : 28.711 FPS (1536 SPF)
Compression mode : Lossy
Stream size : 34.7 MiB (6%)
Title : AC3 – 2.0
Language : Portuguese
Service kind : Complete Main
Default : Yes
Forced : No

Audio #2
ID : 3
Format : AC-3
Format/Info : Audio Coding 3
Commercial name : Dolby Digital
Codec ID : A_AC3
Duration : 25 min 16 s
Bit rate mode : Constant
Bit rate : 192 kb/s
Channel(s) : 2 channels
Channel layout : L R
Sampling rate : 44.1 kHz
Frame rate : 28.711 FPS (1536 SPF)
Compression mode : Lossy
Stream size : 34.7 MiB (6%)
Title : AC3 – 2.0
Language : Japanese
Service kind : Complete Main
Default : No
Forced : No

Text #1
ID : 4
Format : ASS
Codec ID : S_TEXT/ASS
Codec ID/Info : Advanced Sub Station Alpha
Duration : 23 min 44 s
Bit rate : 26 b/s
Frame rate : 0.051 FPS
Count of elements : 73
Compression mode : Lossless
Stream size : 4.69 KiB (0%)
Title : Forçada
Language : Portuguese
Default : No
Forced : Yes

Text #2
ID : 5
Format : ASS
Codec ID : S_TEXT/ASS
Codec ID/Info : Advanced Sub Station Alpha
Duration : 25 min 15 s
Bit rate : 86 b/s
Frame rate : 0.155 FPS
Count of elements : 235
Compression mode : Lossless
Stream size : 16.0 KiB (0%)
Title : Completa
Language : Portuguese
Default : No
Forced : No

Menu
00:01:02.859 : en: PARTE I
00:02:32.738 : en: PARTE II
00:13:08.671 : en: PARTE III
00:23:45.005 : en: PARTE IV

Samurai Warriors Bluray REMUX 1080p Bluray Remux 4K UHD 2160p HDR

Spoiler

General
Unique ID : 165507734950062329560797999553345006200 (0x7C83A159D210B47D4C9387FA586CAA78)
Complete name : D:\Ronin Warriors Remux\Ronin Warriors – 01 – Shadowland.mkv
Format : Matroska
Format version : Version 4
File size : 3.32 GiB
Duration : 25 min 14 s
Overall bit rate : 18.8 Mb/s
Encoded date : UTC 2022-10-10 17:22:36 / UTC 2018-12-14T07:53:21Z
Writing application : mkvmerge v70.0.0 (‘Caught A Lite Sneeze’) 64-bit
Writing library : libebml v1.4.2 + libmatroska v1.6.4 / Lavf57.7.2
Attachments : OpenSans-Semibold_0.ttf

Video
ID : 1
Format : AVC
Format/Info : Advanced Video Codec
Format profile : High@L4.1
Format settings : CABAC / 5 Ref Frames
Format settings, CABAC : Yes
Format settings, Reference : 5 frames
Codec ID : V_MPEG4/ISO/AVC
Duration : 24 min 13 s
Bit rate : 18.7 Mb/s
Width : 1 440 pixels
Height : 1 080 pixels
Display aspect ratio : 4:3
Frame rate mode : Constant
Frame rate : 23.976 (24000/1001) FPS
Color space : YUV
Chroma subsampling : 4:2:0
Bit depth : 8 bits
Scan type : Progressive
Bits/(Pixel*Frame) : 0.501
Stream size : 3.16 GiB (95%)
Title : ENCODED BY DARKDREAM
Writing library : x264 core 120 r2164 da19765
Encoding settings : cabac=1 / ref=5 / deblock=1:1:1 / analyse=0x3:0x133 / me=umh / subme=7 / psy=1 / psy_rd=0.40:0.00 / mixed_ref=1 / me_range=16 / chroma_me=1 / trellis=2 / 8x8dct=1 / cqm=0 / deadzone=21,11 / fast_pskip=0 / chroma_qp_offset=-2 / threads=8 / sliced_threads=0 / nr=0 / decimate=0 / interlaced=0 / bluray_compat=0 / constrained_intra=0 / bframes=3 / b_pyramid=2 / b_adapt=2 / b_bias=0 / direct=3 / weightb=1 / open_gop=0 / weightp=2 / keyint=240 / keyint_min=23 / scenecut=40 / intra_refresh=0 / rc_lookahead=50 / rc=2pass / mbtree=1 / bitrate=18695 / ratetol=1.0 / qcomp=0.60 / qpmin=8 / qpmax=28 / qpstep=4 / cplxblur=20.0 / qblur=0.5 / ip_ratio=1.40 / aq=1:1.00
Default : Yes
Forced : No

Audio #1
ID : 2
Format : AAC LC
Format/Info : Advanced Audio Codec Low Complexity
Codec ID : A_AAC-2
Duration : 24 min 13 s
Bit rate : 256 kb/s
Channel(s) : 2 channels
Channel layout : L R
Sampling rate : 48.0 kHz
Frame rate : 46.875 FPS (1024 SPF)
Compression mode : Lossy
Stream size : 44.4 MiB (1%)
Title : English
Language : English
Default : No
Forced : No

Audio #2
ID : 3
Format : AAC LC
Format/Info : Advanced Audio Codec Low Complexity
Codec ID : A_AAC-2
Duration : 24 min 13 s
Bit rate : 256 kb/s
Channel(s) : 2 channels
Channel layout : L R
Sampling rate : 48.0 kHz
Frame rate : 46.875 FPS (1024 SPF)
Compression mode : Lossy
Stream size : 44.4 MiB (1%)
Title : Japanese
Language : Japanese
Default : No
Forced : No

Audio #3
ID : 4
Format : AC-3
Format/Info : Audio Coding 3
Commercial name : Dolby Digital
Codec ID : A_AC3
Duration : 24 min 13 s
Bit rate mode : Constant
Bit rate : 192 kb/s
Channel(s) : 2 channels
Channel layout : L R
Sampling rate : 44.1 kHz
Frame rate : 28.711 FPS (1536 SPF)
Compression mode : Lossy
Delay relative to video : 20 ms
Stream size : 33.3 MiB (1%)
Title : AC3 – 2.0
Language : Portuguese
Service kind : Complete Main
Default : Yes
Forced : No

Audio #4
ID : 5
Format : AC-3
Format/Info : Audio Coding 3
Commercial name : Dolby Digital
Codec ID : A_AC3
Duration : 24 min 13 s
Bit rate mode : Constant
Bit rate : 192 kb/s
Channel(s) : 2 channels
Channel layout : L R
Sampling rate : 44.1 kHz
Frame rate : 28.711 FPS (1536 SPF)
Compression mode : Lossy
Delay relative to video : 20 ms
Stream size : 33.3 MiB (1%)
Title : AC3 – 2.0
Language : Japanese
Service kind : Complete Main
Default : No
Forced : No

Text #1
ID : 6
Format : ASS
Codec ID : S_TEXT/ASS
Codec ID/Info : Advanced Sub Station Alpha
Duration : 23 min 56 s
Bit rate : 8 b/s
Frame rate : 0.014 FPS
Count of elements : 20
Compression mode : Lossless
Stream size : 1.54 KiB (0%)
Title : English (Translation Only)
Language : English
Default : No
Forced : No

Text #2
ID : 7
Format : ASS
Codec ID : S_TEXT/ASS
Codec ID/Info : Advanced Sub Station Alpha
Duration : 23 min 56 s
Bit rate : 86 b/s
Frame rate : 0.150 FPS
Count of elements : 216
Compression mode : Lossless
Stream size : 15.2 KiB (0%)
Title : English
Language : English
Default : No
Forced : No

Text #3
ID : 8
Format : ASS
Codec ID : S_TEXT/ASS
Codec ID/Info : Advanced Sub Station Alpha
Duration : 23 min 42 s
Bit rate : 21 b/s
Frame rate : 0.043 FPS
Count of elements : 61
Compression mode : Lossless
Stream size : 3.66 KiB (0%)
Title : Forçada
Language : Portuguese
Default : No
Forced : Yes

Text #4
ID : 9
Format : ASS
Codec ID : S_TEXT/ASS
Codec ID/Info : Advanced Sub Station Alpha
Duration : 23 min 42 s
Bit rate : 85 b/s
Frame rate : 0.169 FPS
Count of elements : 241
Compression mode : Lossless
Stream size : 14.8 KiB (0%)
Title : Completa
Language : Portuguese
Default : No
Forced : No

Menu
00:01:02.859 : en: PARTE I
00:02:32.738 : en: PARTE II
00:13:08.245 : en: PARTE III
00:23:45.005 : en: PARTE IV / en: PARTE V

Samurai Warriors OVAS - Bluray REMUX 1080p Bluray Remux 4K UHD 2160p HDR

Spoiler

General
Unique ID : 164921831767867798192271701290307233515 (0x7C12CA17FC5843AFD7ACF44EEA8726EB)
Complete name : D:\Ronin Warriors\OVA 1 – Gaiden\Ronin Warriors OVA – 01 – Once Again, Samurai Troopers! [DarkDream] (1).mkv
Format : Matroska
Format version : Version 4
File size : 3.40 GiB
Duration : 25 min 22 s
Overall bit rate : 19.2 Mb/s
Encoded date : UTC 2022-10-14 14:30:25
Writing application : mkvmerge v70.0.0 (‘Caught A Lite Sneeze’) 64-bit
Writing library : libebml v1.4.2 + libmatroska v1.6.4
Attachments : OpenSans-Semibold_0.ttf

Video
ID : 1
Format : AVC
Format/Info : Advanced Video Codec
Format profile : High@L4.1
Format settings : CABAC / 5 Ref Frames
Format settings, CABAC : Yes
Format settings, Reference : 5 frames
Codec ID : V_MPEG4/ISO/AVC
Duration : 25 min 22 s
Bit rate : 18.7 Mb/s
Width : 1 440 pixels
Height : 1 080 pixels
Display aspect ratio : 4:3
Frame rate mode : Constant
Frame rate : 23.976 (24000/1001) FPS
Color space : YUV
Chroma subsampling : 4:2:0
Bit depth : 8 bits
Scan type : Progressive
Bits/(Pixel*Frame) : 0.501
Stream size : 3.31 GiB (97%)
Title : ENCODED BY DARKDREAM
Writing library : x264 core 120 r2164 da19765
Encoding settings : cabac=1 / ref=5 / deblock=1:1:1 / analyse=0x3:0x133 / me=umh / subme=7 / psy=1 / psy_rd=0.40:0.00 / mixed_ref=1 / me_range=16 / chroma_me=1 / trellis=2 / 8x8dct=1 / cqm=0 / deadzone=21,11 / fast_pskip=0 / chroma_qp_offset=-2 / threads=8 / sliced_threads=0 / nr=0 / decimate=0 / interlaced=0 / bluray_compat=0 / constrained_intra=0 / bframes=3 / b_pyramid=2 / b_adapt=2 / b_bias=0 / direct=3 / weightb=1 / open_gop=0 / weightp=2 / keyint=240 / keyint_min=23 / scenecut=40 / intra_refresh=0 / rc_lookahead=50 / rc=2pass / mbtree=1 / bitrate=18669 / ratetol=1.0 / qcomp=0.60 / qpmin=8 / qpmax=28 / qpstep=4 / cplxblur=20.0 / qblur=0.5 / ip_ratio=1.40 / aq=1:1.00
Default : Yes
Forced : No

Audio #1
ID : 2
Format : AAC LC
Format/Info : Advanced Audio Codec Low Complexity
Codec ID : A_AAC-2
Duration : 25 min 22 s
Bit rate : 256 kb/s
Channel(s) : 2 channels
Channel layout : L R
Sampling rate : 48.0 kHz
Frame rate : 46.875 FPS (1024 SPF)
Compression mode : Lossy
Stream size : 46.5 MiB (1%)
Title : English
Language : English
Default : Yes
Forced : No

Audio #2
ID : 3
Format : AAC LC
Format/Info : Advanced Audio Codec Low Complexity
Codec ID : A_AAC-2
Duration : 25 min 22 s
Bit rate : 256 kb/s
Channel(s) : 2 channels
Channel layout : L R
Sampling rate : 48.0 kHz
Frame rate : 46.875 FPS (1024 SPF)
Compression mode : Lossy
Stream size : 46.5 MiB (1%)
Title : Japanese
Language : Japanese
Default : No
Forced : No

Text #1
ID : 4
Format : ASS
Codec ID : S_TEXT/ASS
Codec ID/Info : Advanced Sub Station Alpha
Duration : 25 min 5 s
Bit rate : 11 b/s
Frame rate : 0.018 FPS
Count of elements : 27
Compression mode : Lossless
Stream size : 2.05 KiB (0%)
Title : English (Translation Only)
Language : English
Default : No
Forced : No

Text #2
ID : 5
Format : ASS
Codec ID : S_TEXT/ASS
Codec ID/Info : Advanced Sub Station Alpha
Duration : 25 min 5 s
Bit rate : 106 b/s
Frame rate : 0.178 FPS
Count of elements : 268
Compression mode : Lossless
Stream size : 19.6 KiB (0%)
Title : English
Language : English
Default : No
Forced : No

Text #3
ID : 6
Format : ASS
Codec ID : S_TEXT/ASS
Codec ID/Info : Advanced Sub Station Alpha
Duration : 25 min 5 s
Bit rate : 77 b/s
Frame rate : 0.147 FPS
Count of elements : 221
Compression mode : Lossless
Stream size : 14.2 KiB (0%)
Title : Completa
Language : Portuguese
Default : Yes
Forced : No

Visite nosso fórum / Siga-nos no Twitter / BaixarTurbo.com

Samurai Warriors Bluray 1080p Bluray Remux 4K UHD 2160p HDR

Entrar

Não tem uma conta? Cadastre-se
Inscrever-se

Já tem uma conta? Entrar