Rick and Morty

Rick é um velho mentalmente desequilibrado, mas cientificamente talentoso que se reconectou recentemente com sua família. Ele passa a maior parte do tempo envolvendo o jovem neto Morty em aventuras perigosas e estranhas no espaço e em universos alternativos. Compostos à vida familiar já instável de Morty, esses eventos causam muito sofrimento a Morty em casa e na escola.

Rick and Morty

Título Original: Rick and Morty
Qualidade: Remux
Áudio: Dual Áudio
Legenda: Embutida (selecionável)
 
Download Remux 1080p 1º Temporada
 

Rick and Morty Bluray 1080p Bluray Remux 4K UHD 2160p HDR

Spoiler

General
Unique ID : 311759458784977802711197146201794387657 (0xEA8AB00DE4AE52E8C1C3D7DCD7C19EC9)
Complete name : D:\2013 – Rick and Morty – 1ª Temporada [REMUX]\Rick and Morty – 01ª Temporada – Ep. 01 [REMUX].mkv
Format : Matroska
Format version : Version 4
File size : 2.74 GiB
Duration : 22 min 3 s
Overall bit rate mode : Variable
Overall bit rate : 17.8 Mb/s
Movie name : Rick and Morty Season 1
Encoded date : UTC 2020-08-24 02:50:24
Writing application : mkvmerge v47.0.0 (‘Black Flag’) 64-bit
Writing library : libebml v1.3.10 + libmatroska v1.5.2

Video
ID : 1
ID in the original source m : 4113 (0x1011)
Format : VC-1
Format profile : Advanced@L3
Codec ID : V_MS/VFW/FOURCC / WVC1
Codec ID/Hint : Microsoft
Duration : 22 min 1 s
Bit rate : 15.0 Mb/s
Width : 1 920 pixels
Height : 1 080 pixels
Display aspect ratio : 16:9
Frame rate mode : Constant
Frame rate : 23.976 (24000/1001) FPS
Color space : YUV
Chroma subsampling : 4:2:0
Bit depth : 8 bits
Scan type : Progressive
Compression mode : Lossy
Bits/(Pixel*Frame) : 0.301
Stream size : 2.30 GiB (84%)
Language : English
Default : No
Forced : No
Original source medium : Blu-ray

Audio #1
ID : 2
ID in the original source m : 4352 (0x1100)
Format : MLP FBA
Format/Info : Meridian Lossless Packing FBA
Commercial name : Dolby TrueHD
Codec ID : A_TRUEHD
Duration : 22 min 1 s
Bit rate mode : Variable
Bit rate : 2 190 kb/s
Maximum bit rate : 3 207 kb/s
Channel(s) : 6 channels
Channel layout : L R C LFE Ls Rs
Sampling rate : 48.0 kHz
Frame rate : 1 200.000 FPS (40 SPF)
Compression mode : Lossless
Stream size : 345 MiB (12%)
Title : Surround 5.1
Language : English
Default : No
Forced : No
Original source medium : Blu-ray

Audio #2
ID : 3
ID in the original source m : 4352 (0x1100)
Format : AC-3
Format/Info : Audio Coding 3
Commercial name : Dolby Digital
Codec ID : A_AC3
Duration : 22 min 1 s
Bit rate mode : Constant
Bit rate : 448 kb/s
Channel(s) : 6 channels
Channel layout : L R C LFE Ls Rs
Sampling rate : 48.0 kHz
Frame rate : 31.250 FPS (1536 SPF)
Compression mode : Lossy
Stream size : 70.6 MiB (3%)
Title : Surround 5.1
Language : English
Service kind : Complete Main
Default : No
Forced : No
Original source medium : Blu-ray

Audio #3
ID : 4
Format : AAC LC
Format/Info : Advanced Audio Codec Low Complexity
Codec ID : A_AAC-2
Duration : 22 min 3 s
Bit rate : 125 kb/s
Channel(s) : 2 channels
Channel layout : L R
Sampling rate : 48.0 kHz
Frame rate : 46.875 FPS (1024 SPF)
Compression mode : Lossy
Stream size : 19.8 MiB (1%)
Language : Portuguese
Default : Yes
Forced : No


Visite nosso fórum / Siga-nos no Twitter / BaixarTurbo.com

Rick and Morty Bluray 1080p Bluray Remux 4K UHD 2160p HDR

Comentários

Entrar

Não tem uma conta? Cadastre-se
Inscrever-se

Já tem uma conta? Entrar