Policial De Aço Jiban

O policial Naoto Tamura sacrificou sua vida para derrotar um dos monstros da organização Biolon, mas renasceu como o Policial de Aço Jiban, passando a combater o grupo maligno liderado pelo Doutor Jean Marie.

Jiban, o Policial de Aço

Título Original: Mobile Sheriff Jiban
Qualidade: UPSCALE 1080P
Áudio: Dublado
Legenda: Embutida (selecionável)
Completo, episódio 51 e 52 foi disponibilzado pelo membro Koyote, ficou um arquivo um pouco menor, então deixei o 51 e 52 legendado que é do mesmo release do 01 – 50, e também esse 51 e 52 dele com a opção dual áudio.
A intro e os créditos estão apenas no primeiro episódios, do segundo em diante eu tirei para poupar tempo de máquina no upscale
 
Download UPSCALE 1080p
 

Jiban, o Policial de Aço Bluray 1080p Bluray Remux 4K UHD 2160p HDR

Spoiler

General
Complete name : C:\Users\Giu\Desktop\1989 Kidou Keiji Jiban\Só com audio dublado\Jiban 01 UPSCALE 1080P.mp4
Format : MPEG-4
Format profile : Base Media
Codec ID : isom (isom/iso2/avc1/mp41)
File size : 1.81 GiB
Duration : 24 min 4 s
Overall bit rate : 10.8 Mb/s
Writing application : Lavf58.20.100

Video
ID : 1
Format : AVC
Format/Info : Advanced Video Codec
Format profile : Baseline@L4
Format settings : 1 Ref Frames
Format settings, CABAC : No
Format settings, Reference : 1 frame
Format settings, GOP : M=1, N=12
Codec ID : avc1
Codec ID/Info : Advanced Video Coding
Duration : 24 min 4 s
Bit rate : 10.7 Mb/s
Width : 1 920 pixels
Height : 1 080 pixels
Display aspect ratio : 16:9
Frame rate mode : Constant
Frame rate : 23.976 (24000/1001) FPS
Color space : YUV
Chroma subsampling : 4:2:0
Bit depth : 8 bits
Scan type : Progressive
Bits/(Pixel*Frame) : 0.214
Stream size : 1.79 GiB (99%)
Writing library : x264 core 157 r2970 5493be8
Encoding settings : cabac=0 / ref=1 / deblock=0:0:0 / analyse=0:0 / me=dia / subme=0 / psy=1 / psy_rd=1.00:0.00 / mixed_ref=0 / me_range=16 / chroma_me=1 / trellis=0 / 8x8dct=0 / cqm=0 / deadzone=21,11 / fast_pskip=1 / chroma_qp_offset=0 / threads=8 / lookahead_threads=1 / sliced_threads=0 / nr=0 / decimate=1 / interlaced=0 / bluray_compat=0 / constrained_intra=0 / bframes=0 / weightp=0 / keyint=12 / keyint_min=1 / scenecut=0 / intra_refresh=0 / rc=crf / mbtree=0 / crf=20.0 / qcomp=0.60 / qpmin=0 / qpmax=69 / qpstep=4 / ip_ratio=1.40 / aq=0
Codec configuration box : avcC

Audio
ID : 2
Format : AAC LC
Format/Info : Advanced Audio Codec Low Complexity
Codec ID : mp4a-40-2
Duration : 24 min 4 s
Bit rate mode : Constant
Bit rate : 96.0 kb/s
Channel(s) : 2 channels
Channel layout : L R
Sampling rate : 48.0 kHz
Frame rate : 46.875 FPS (1024 SPF)
Compression mode : Lossy
Stream size : 16.6 MiB (1%)
Default : Yes
Alternate group : 1


Visite nosso fórum / Siga-nos no Twitter / BaixarTurbo.com

Jiban, o Policial de Aço Bluray 1080p Bluray Remux 4K UHD 2160p HDR

Entrar

Não tem uma conta? Cadastre-se
Inscrever-se

Já tem uma conta? Entrar