Platinum End

A história acompanha Mirai, um jovem sombrio que está passando pela formatura e chegada da vida adulta. Certo dia ele é surpreendido com a inesperada aparição de um anjo, que diz que ele deve enfrentar outros 12 humanos escolhidos, afim de decidir quem será o próximo Deus do mundo.

Platinum End

Título Original: Platinum End
Qualidade: Remux 1080p
Áudio: Dual Áudio
Legenda: Embutida (selecionável)
 
Download Remux 1080p
 

Platinum End Bluray 1080p Bluray Remux 4K UHD 2160p HDR

Spoiler

General
Unique ID : 136184932309314271490496334194349458912 (0x6674438FA9EF305916AA3B2382DC45E0)
Complete name : D:\Platinum End\[Anitsu] Platinum End – 07 [BD 1080p x264 FLAC-AAC] [DUAL][E9B51B8B].mkv
Format : Matroska
Format version : Version 4
File size : 1.88 GiB
Duration : 24 min 10 s
Overall bit rate mode : Variable
Overall bit rate : 11.1 Mb/s
Encoded date : UTC 2022-09-24 12:15:37
Writing application : mkvmerge v68.0.0 (‘Anitsu’) 64-bit
Writing library : libebml v1.4.2 + libmatroska v1.6.4

Video
ID : 1
Format : AVC
Format/Info : Advanced Video Codec
Format profile : High@L4.1
Format settings : CABAC / 4 Ref Frames
Format settings, CABAC : Yes
Format settings, Reference : 4 frames
Codec ID : V_MPEG4/ISO/AVC
Duration : 24 min 10 s
Bit rate : 9 400 kb/s
Width : 1 920 pixels
Height : 1 080 pixels
Display aspect ratio : 16:9
Frame rate mode : Constant
Frame rate : 23.976 (24000/1001) FPS
Color space : YUV
Chroma subsampling : 4:2:0
Bit depth : 8 bits
Scan type : Progressive
Bits/(Pixel*Frame) : 0.189
Stream size : 1.59 GiB (85%)
Writing library : x264 core 125 r2200 999b753
Encoding settings : cabac=1 / ref=4 / deblock=1:-1:-1 / analyse=0x3:0x113 / me=umh / subme=9 / psy=1 / psy_rd=1.00:0.00 / mixed_ref=1 / me_range=24 / chroma_me=1 / trellis=2 / 8x8dct=1 / cqm=0 / deadzone=21,11 / fast_pskip=1 / chroma_qp_offset=-2 / threads=18 / lookahead_threads=3 / sliced_threads=0 / nr=0 / decimate=1 / interlaced=0 / bluray_compat=0 / constrained_intra=0 / bframes=3 / b_pyramid=0 / b_adapt=2 / b_bias=0 / direct=3 / weightb=1 / open_gop=0 / weightp=2 / keyint=240 / keyint_min=23 / scenecut=40 / intra_refresh=0 / rc_lookahead=50 / rc=2pass / mbtree=1 / bitrate=9400 / ratetol=1.0 / qcomp=0.60 / qpmin=10 / qpmax=51 / qpstep=4 / cplxblur=20.0 / qblur=0.5 / vbv_maxrate=50000 / vbv_bufsize=50000 / nal_hrd=none / ip_ratio=1.40 / aq=1:1.00
Default : Yes
Forced : No

Audio #1
ID : 2
Format : FLAC
Format/Info : Free Lossless Audio Codec
Codec ID : A_FLAC
Duration : 24 min 10 s
Bit rate mode : Variable
Bit rate : 1 445 kb/s
Channel(s) : 2 channels
Channel layout : L R
Sampling rate : 48.0 kHz
Frame rate : 11.719 FPS (4096 SPF)
Bit depth : 24 bits
Compression mode : Lossless
Stream size : 250 MiB (13%)
Title : JAP FLAC 2.0
Writing library : libFLAC 1.2.1 (UTC 2007-09-17)
Language : Japanese
Default : Yes
Forced : No

Audio #2
ID : 4
Format : AAC LC
Format/Info : Advanced Audio Codec Low Complexity
Codec ID : A_AAC-2
Duration : 24 min 9 s
Bit rate : 256 kb/s
Channel(s) : 2 channels
Channel layout : L R
Sampling rate : 48.0 kHz
Frame rate : 46.875 FPS (1024 SPF)
Compression mode : Lossy
Stream size : 44.3 MiB (2%)
Title : PT-BR AAC 2.0
Language : Portuguese
Default : No
Forced : No

Text #1
ID : 5
Format : ASS
Codec ID : S_TEXT/ASS
Codec ID/Info : Advanced Sub Station Alpha
Duration : 24 min 9 s
Bit rate : 161 b/s
Frame rate : 0.274 FPS
Count of elements : 397
Compression mode : Lossless
Stream size : 28.5 KiB (0%)
Title : Crunchyroll FULL
Language : Portuguese
Default : Yes
Forced : No

Text #2
ID : 6
Format : ASS
Codec ID : S_TEXT/ASS
Codec ID/Info : Advanced Sub Station Alpha
Duration : 21 min 30 s
Bit rate : 30 b/s
Frame rate : 0.041 FPS
Count of elements : 53
Compression mode : Lossless
Stream size : 4.74 KiB (0%)
Title : Crunchyroll FORCED
Language : Portuguese
Default : No
Forced : No

Menu
00:00:00.000 : :Prólogo
00:02:09.004 : :Abertura
00:03:39.010 : :Parte A
00:11:41.993 : :Parte B
00:22:34.979 : :Encerramento
00:24:04.943 : :Prévia


Visite nosso fórum / Siga-nos no Twitter / BaixarTurbo.com

Platinum End Bluray 1080p Bluray Remux 4K UHD 2160p HDR

Entrar

Não tem uma conta? Cadastre-se
Inscrever-se

Já tem uma conta? Entrar