Pica Pau E Seus Amigos – The Woody Woodypecker Screwball Collection

Pica Pau E Seus Amigos – The Woody Woodypecker Screwball Collection – Acompanhe as aventuras de um pássaro muito engraçado que sempre se envolve em situações divertidas.

Pica Pau E Seus Amigos – The Woody Woodypecker Screwball Collection

Título Original: The Woody Woodpecker : Screwball Collection
Qualidade: Bluray 1080P / Remux
Áudio: Dual Áudio
Legenda: Embutida (selecionável)
 
1ª Temporada – WEB-DL 1080p
 
 

Pica Pau E Seus Amigos – The Woody Woodypecker Screwball Collection Bluray 1080p Bluray Remux 4K UHD 2160p HDR

Spoiler

Video
ID : 1
ID in the original source medi : 4113 (0x1011)
Format : AVC
Format/Info : Advanced Video Codec
Format profile : High@L4.1
Format settings : CABAC / 2 Ref Frames
Format settings, CABAC : Yes
Format settings, Reference fra : 2 frames
Format settings, GOP : M=1, N=5
Codec ID : V_MPEG4/ISO/AVC
Duration : 6 min 58 s
Bit rate mode : Variable
Bit rate : 21.9 Mb/s
Maximum bit rate : 38.0 Mb/s
Width : 1 920 pixels
Height : 1 080 pixels
Display aspect ratio : 16:9
Frame rate mode : Constant
Frame rate : 23.976 (24000/1001) FPS
Color space : YUV
Chroma subsampling : 4:2:0
Bit depth : 8 bits
Scan type : Progressive
Bits/(Pixel*Frame) : 0.440
Stream size : 1.07 GiB (98%)
Language : English
Default : No
Forced : No
Original source medium : Blu-ray

Audio #1
ID : 2
ID in the original source medi : 4352 (0x1100)
Format : AC-3
Format/Info : Audio Coding 3
Commercial name : Dolby Digital
Codec ID : A_AC3
Duration : 6 min 58 s
Bit rate mode : Constant
Bit rate : 192 kb/s
Channel(s) : 2 channels
Channel layout : L R
Sampling rate : 48.0 kHz
Frame rate : 31.250 FPS (1536 SPF)
Compression mode : Lossy
Stream size : 9.58 MiB (1%)
Title : Stereo
Language : Portuguese
Service kind : Complete Main
Default : Yes
Forced : No
Original source medium : Blu-ray

Audio #2
ID : 3
ID in the original source medi : 4353 (0x1101)
Format : AC-3
Format/Info : Audio Coding 3
Commercial name : Dolby Digital
Codec ID : A_AC3
Duration : 6 min 58 s
Bit rate mode : Constant
Bit rate : 192 kb/s
Channel(s) : 2 channels
Channel layout : L R
Sampling rate : 48.0 kHz
Frame rate : 31.250 FPS (1536 SPF)
Compression mode : Lossy
Stream size : 9.57 MiB (1%)
Title : Stereo
Language : English
Service kind : Complete Main
Default : No
Forced : No
Original source medium : Blu-ray


Visite nosso fórum / Siga-nos no Twitter / BaixarTurbo.com

Pica Pau E Seus Amigos – The Woody Woodypecker Screwball Collection Bluray 1080p Bluray Remux 4K UHD 2160p HDR

Entrar

Não tem uma conta? Cadastre-se
Inscrever-se

Já tem uma conta? Entrar