Overlord

Quando um MMORPG bastante popular anuncia que será desligado permanentemente, um jogador veterano se recusa a deslogar: Momonga. À medida que NPCs começam a desenvolver personalidades e mentes próprias, ele decide usar suas habilidades para se tornar o novo chefão do jogo.

Overlord

Título Original: Overlord
Qualidade: Remux Remux 1080p
Áudio: Dual Áudio
Legenda: Embutida (selecionável)
 
Download Remux 1080p
 
Adicionado Temporada 01

Overlord Bluray 1080p Bluray Remux 4K UHD 2160p HDR

Spoiler

General
Unique ID : 2220761040330081650383822115183734637 (0x1ABB3F9086A22CCB63467D69EFF2F6D)
Complete name : C:\Users\Giu\Desktop\Overlord\Episódio 06 – Remux 1080p.mkv
Format : Matroska
Format version : Version 4
File size : 5.70 GiB
Duration : 24 min 15 s
Overall bit rate mode : Variable
Overall bit rate : 33.6 Mb/s
Movie name : オーバーロード Vol.3
Encoded date : UTC 2022-10-03 11:17:02
Writing application : mkvmerge v70.0.0 (‘Caught A Lite Sneeze’) 64-bit
Writing library : libebml v1.4.2 + libmatroska v1.6.4

Video
ID : 1
ID in the original source m : 4113 (0x1011)
Format : AVC
Format/Info : Advanced Video Codec
Format profile : High@L4.1
Format settings : CABAC / 4 Ref Frames
Format settings, CABAC : Yes
Format settings, Reference : 4 frames
Codec ID : V_MPEG4/ISO/AVC
Duration : 24 min 10 s
Bit rate mode : Variable
Bit rate : 31.9 Mb/s
Maximum bit rate : 39.0 Mb/s
Width : 1 920 pixels
Height : 1 080 pixels
Display aspect ratio : 16:9
Frame rate mode : Constant
Frame rate : 23.976 (24000/1001) FPS
Color space : YUV
Chroma subsampling : 4:2:0
Bit depth : 8 bits
Scan type : Progressive
Bits/(Pixel*Frame) : 0.641
Stream size : 5.39 GiB (94%)
Language : English
Default : No
Forced : No
Original source medium : Blu-ray

Audio #1
ID : 2
Format : AAC LC
Format/Info : Advanced Audio Codec Low Complexity
Codec ID : A_AAC-2
Duration : 24 min 15 s
Bit rate : 253 kb/s
Channel(s) : 2 channels
Channel layout : L R
Sampling rate : 48.0 kHz
Frame rate : 46.875 FPS (1024 SPF)
Compression mode : Lossy
Delay relative to video : 12 ms
Stream size : 44.0 MiB (1%)
Language : Portuguese
Default : Yes
Forced : No

Audio #2
ID : 3
ID in the original source m : 4352 (0x1100)
Format : PCM
Format settings : Little / Signed
Codec ID : A_PCM/INT/LIT
Duration : 24 min 10 s
Bit rate mode : Constant
Bit rate : 1 536 kb/s
Channel(s) : 2 channels
Sampling rate : 48.0 kHz
Frame rate : 30.000 FPS (1600 SPF)
Bit depth : 16 bits
Stream size : 266 MiB (5%)
Title : Stereo
Language : Japanese
Default : Yes
Forced : No
Original source medium : Blu-ray

Text
ID : 4
ID in the original source m : 4608 (0x1200)
Format : PGS
Muxing mode : zlib
Codec ID : S_HDMV/PGS
Codec ID/Info : Picture based subtitle format used on BDs/HD-DVDs
Duration : 23 min 46 s
Bit rate : 183 kb/s
Frame rate : 1.051 FPS
Count of elements : 1500
Stream size : 31.1 MiB (1%)
Language : Portuguese
Default : No
Forced : No
Original source medium : Blu-ray

Menu
00:00:00.000 : ja:Chapter 01
00:02:04.999 : ja:Chapter 02
00:03:35.006 : ja:Chapter 03
00:11:20.971 : ja:Chapter 04
00:22:09.953 : ja:Chapter 05
00:23:39.960 : ja:Chapter 06


Visite nosso fórum / Siga-nos no Twitter / BaixarTurbo.com

Overlord Bluray 1080p Bluray Remux 4K UHD 2160p HDR

Entrar

Não tem uma conta? Cadastre-se
Inscrever-se

Já tem uma conta? Entrar