Os Cavaleiros do Zodíaco

Os 88 Cavaleiros de Atena trajam desde os tempos mitológicos armaduras protegidas pelas constelações do céu para, assim, servir sua deusa e preservar a paz e o amor na Terra. Agora, nos tempos modernos, nasce uma nova Atena e, para que ela não seja assassinada ainda bebê por aqueles que estão ofuscados pelo poder e pela ganância, ela é levada para longe, onde cresce como Saori Kido. Uma nova batalha santa está para começar! Vão, jovens Cavaleiros, protejam Atena!

Os Cavaleiros do Zodíaco

Título Original: Saint Seiya
Qualidade: Remux 1080p
Áudio: Dual Áudio
Legenda: Embutida (selecionável)
Adicionado Episódio 006 – 010.
Existe duas dublagens no arquivo, a clássica gota mágica e a redublagem, fora japonês e francês que foi a última versão de bluray de 2015 da série, é a melhor versão de imagem lançada.
 
Download Remux 1080p
 

Os Cavaleiros do Zodíaco Bluray 1080p Bluray Remux 4K UHD 2160p HDR

Spoiler

General
Unique ID : 335342688116405875737281164150731508960 (0xFC48A7081BAB86D105524E33D8B10CE0)
Complete name : C:\Users\Giu\Desktop\SAINT SEIYA\Episodio 01.mkv
Format : Matroska
Format version : Version 4
File size : 5.47 GiB
Duration : 24 min 21 s
Overall bit rate mode : Variable
Overall bit rate : 32.1 Mb/s
Movie name : Saint Seiya BD1
Encoded date : UTC 2022-10-06 15:54:22
Writing application : mkvmerge v70.0.0 (‘Caught A Lite Sneeze’) 64-bit
Writing library : libebml v1.4.2 + libmatroska v1.6.4

Video
ID : 1
ID in the original source m : 4113 (0x1011)
Format : AVC
Format/Info : Advanced Video Codec
Format profile : High@L4.1
Format settings : CABAC / 4 Ref Frames
Format settings, CABAC : Yes
Format settings, Reference : 4 frames
Codec ID : V_MPEG4/ISO/AVC
Duration : 24 min 21 s
Bit rate mode : Variable
Bit rate : 27.0 Mb/s
Maximum bit rate : 35.0 Mb/s
Width : 1 920 pixels
Height : 1 080 pixels
Display aspect ratio : 16:9
Frame rate mode : Constant
Frame rate : 23.976 (24000/1001) FPS
Standard : NTSC
Color space : YUV
Chroma subsampling : 4:2:0
Bit depth : 8 bits
Scan type : Progressive
Bits/(Pixel*Frame) : 0.543
Stream size : 4.59 GiB (84%)
Language : English
Default : No
Forced : No
Color range : Limited
Color primaries : BT.709
Transfer characteristics : BT.709
Matrix coefficients : BT.709
Original source medium : Blu-ray

Audio #1
ID : 2
ID in the original source m : 4352 (0x1100)
Format : DTS XLL
Format/Info : Digital Theater Systems
Commercial name : DTS-HD Master Audio
Codec ID : A_DTS
Duration : 24 min 21 s
Bit rate mode : Variable
Bit rate : 1 703 kb/s
Channel(s) : 2 channels
Channel layout : L R
Sampling rate : 48.0 kHz
Frame rate : 93.750 FPS (512 SPF)
Bit depth : 24 bits
Compression mode : Lossless
Stream size : 297 MiB (5%)
Title : Stereo
Language : French
Default : Yes
Forced : No
Original source medium : Blu-ray

Audio #2
ID : 3
ID in the original source m : 4352 (0x1100)
Format : DTS
Format/Info : Digital Theater Systems
Codec ID : A_DTS
Duration : 24 min 21 s
Bit rate mode : Constant
Bit rate : 768 kb/s
Channel(s) : 2 channels
Channel layout : L R
Sampling rate : 48.0 kHz
Frame rate : 93.750 FPS (512 SPF)
Bit depth : 24 bits
Compression mode : Lossy
Stream size : 134 MiB (2%)
Title : Stereo
Language : French
Default : No
Forced : No
Original source medium : Blu-ray

Audio #3
ID : 4
ID in the original source m : 4353 (0x1101)
Format : DTS XLL
Format/Info : Digital Theater Systems
Commercial name : DTS-HD Master Audio
Codec ID : A_DTS
Duration : 24 min 21 s
Bit rate mode : Variable
Bit rate : 1 581 kb/s
Channel(s) : 2 channels
Channel layout : L R
Sampling rate : 48.0 kHz
Frame rate : 93.750 FPS (512 SPF)
Bit depth : 24 bits
Compression mode : Lossless
Stream size : 276 MiB (5%)
Title : Stereo
Language : Japanese
Default : No
Forced : No
Original source medium : Blu-ray

Audio #4
ID : 5
ID in the original source m : 4353 (0x1101)
Format : DTS
Format/Info : Digital Theater Systems
Codec ID : A_DTS
Duration : 24 min 21 s
Bit rate mode : Constant
Bit rate : 768 kb/s
Channel(s) : 2 channels
Channel layout : L R
Sampling rate : 48.0 kHz
Frame rate : 93.750 FPS (512 SPF)
Bit depth : 24 bits
Compression mode : Lossy
Stream size : 134 MiB (2%)
Title : Stereo
Language : Japanese
Default : No
Forced : No
Original source medium : Blu-ray

Audio #5
ID : 6
Format : AC-3
Format/Info : Audio Coding 3
Commercial name : Dolby Digital
Codec ID : A_AC3
Duration : 24 min 21 s
Bit rate mode : Constant
Bit rate : 192 kb/s
Channel(s) : 2 channels
Channel layout : L R
Sampling rate : 48.0 kHz
Frame rate : 31.250 FPS (1536 SPF)
Compression mode : Lossy
Stream size : 33.4 MiB (1%)
Language : Portuguese
Service kind : Complete Main
Default : No
Forced : No

Audio #6
ID : 7
Format : MPEG Audio
Format version : Version 1
Format profile : Layer 3
Codec ID : A_MPEG/L3
Codec ID/Hint : MP3
Duration : 24 min 20 s
Bit rate mode : Constant
Bit rate : 128 kb/s
Channel(s) : 2 channels
Sampling rate : 44.1 kHz
Frame rate : 38.281 FPS (1152 SPF)
Compression mode : Lossy
Delay relative to video : 18 ms
Stream size : 22.3 MiB (0%)
Title : (Gota Mágica)
Language : Portuguese
Default : Yes
Forced : No

Text #1
ID : 8
ID in the original source m : 4608 (0x1200)
Format : PGS
Muxing mode : zlib
Codec ID : S_HDMV/PGS
Codec ID/Info : Picture based subtitle format used on BDs/HD-DVDs
Duration : 24 min 9 s
Bit rate : 526 b/s
Frame rate : 0.010 FPS
Count of elements : 14
Stream size : 93.2 KiB (0%)
Language : French
Default : No
Forced : No
Original source medium : Blu-ray

Text #2
ID : 9
ID in the original source m : 4609 (0x1201)
Format : PGS
Muxing mode : zlib
Codec ID : S_HDMV/PGS
Codec ID/Info : Picture based subtitle format used on BDs/HD-DVDs
Duration : 24 min 11 s
Bit rate : 26.3 kb/s
Frame rate : 0.371 FPS
Count of elements : 538
Stream size : 4.55 MiB (0%)
Language : French
Default : No
Forced : No
Original source medium : Blu-ray

Text #3
ID : 10
Format : UTF-8
Codec ID : S_TEXT/UTF8
Codec ID/Info : UTF-8 Plain Text
Duration : 20 min 45 s
Bit rate : 52 b/s
Frame rate : 0.185 FPS
Count of elements : 230
Stream size : 7.96 KiB (0%)
Language : Portuguese
Default : No
Forced : No

Text #4
ID : 11
Format : ASS
Codec ID : S_TEXT/ASS
Codec ID/Info : Advanced Sub Station Alpha
Duration : 24 min 18 s
Bit rate : 20 b/s
Frame rate : 0.022 FPS
Count of elements : 32
Compression mode : Lossless
Stream size : 3.70 KiB (0%)
Title : (Prévia)
Language : Portuguese
Default : No
Forced : Yes

Menu
00:00:00.000 : en:Chapter 01
00:11:56.757 : en:Chapter 02
00:23:51.430 : en:Chapter 03


Visite nosso fórum / Siga-nos no Twitter / BaixarTurbo.com

Os Cavaleiros do Zodíaco Bluray 1080p Bluray Remux 4K UHD 2160p HDR

Entrar

Não tem uma conta? Cadastre-se
Inscrever-se

Já tem uma conta? Entrar