Lobo Adolescente

Lobo Adolescente – Após ser mordido por um animal, Scott vira lobisomem e é o cara adorado por todas na escola. Só que ele também ganha novos problemas.

Lobo Adolescente

Título Original: Teen Wolf
Qualidade: Remux
Áudio: Dual Áudio
Legenda: Embutida (selecionável)
 
1ª Temporada – Bluray 1080P Remux
2ª Temporada – Bluray 1080P Remux

Lobo Adolescente Bluray 1080p Bluray Remux 4K UHD 2160p HDR

Spoiler

Video
ID : 1
Format : AVC
Format/Info : Advanced Video Codec
Format profile : High@L4.1
Format settings : CABAC / 4 Ref Frames
Format settings, CABAC : Yes
Format settings, Reference fra : 4 frames
Codec ID : V_MPEG4/ISO/AVC
Duration : 41 min 11 s
Bit rate mode : Variable
Bit rate : 29.7 Mb/s
Maximum bit rate : 36.0 Mb/s
Width : 1 920 pixels
Height : 1 080 pixels
Display aspect ratio : 16:9
Frame rate mode : Constant
Frame rate : 23.976 (24000/1001) FPS
Color space : YUV
Chroma subsampling : 4:2:0
Bit depth : 8 bits
Scan type : Progressive
Bits/(Pixel*Frame) : 0.598
Stream size : 8.55 GiB (90%)
Title : MPEG-4 AVC Video / ~29999 kbps / 1080p / 23.976 fps / 16:9 / High Profile 4.1
Language : English
Default : Yes
Forced : No

Audio #1
ID : 2
Format : E-AC-3
Format/Info : Enhanced AC-3
Commercial name : Dolby Digital Plus
Codec ID : A_EAC3
Duration : 41 min 22 s
Bit rate mode : Constant
Bit rate : 640 kb/s
Channel(s) : 6 channels
Channel layout : L R C LFE Ls Rs
Sampling rate : 48.0 kHz
Frame rate : 31.250 FPS (1536 SPF)
Compression mode : Lossy
Stream size : 189 MiB (2%)
Language : Portuguese
Service kind : Complete Main
Default : Yes
Forced : No

Audio #2
ID : 3
Format : DTS XLL
Format/Info : Digital Theater Systems
Commercial name : DTS-HD Master Audio
Codec ID : A_DTS
Duration : 41 min 11 s
Bit rate mode : Variable
Bit rate : 2 368 kb/s
Channel(s) : 6 channels
Channel layout : C L R Ls Rs LFE
Sampling rate : 48.0 kHz
Frame rate : 93.750 FPS (512 SPF)
Bit depth : 24 bits
Compression mode : Lossless
Stream size : 698 MiB (7%)
Title : DTS-HD Master Audio / 5.1 / 48 kHz / ~3895 kbps / 24-bit
Language : English
Default : No
Forced : No

Audio #3
ID : 4
Format : AC-3
Format/Info : Audio Coding 3
Commercial name : Dolby Digital
Codec ID : A_AC3
Duration : 41 min 11 s
Bit rate mode : Constant
Bit rate : 192 kb/s
Channel(s) : 2 channels
Channel layout : L R
Sampling rate : 48.0 kHz
Frame rate : 31.250 FPS (1536 SPF)
Compression mode : Lossy
Stream size : 56.6 MiB (0%)
Title : Commentary by Cast, Crew or Special Guest #1 (Dolby Digital Audio / 2.0 / 48 kHz / 192 kbps)
Language : English
Service kind : Complete Main
Default : No
Forced : No

Audio #4
ID : 5
Format : AC-3
Format/Info : Audio Coding 3
Commercial name : Dolby Digital
Codec ID : A_AC3
Duration : 41 min 11 s
Bit rate mode : Constant
Bit rate : 192 kb/s
Channel(s) : 2 channels
Channel layout : L R
Sampling rate : 48.0 kHz
Frame rate : 31.250 FPS (1536 SPF)
Compression mode : Lossy
Stream size : 56.6 MiB (0%)
Title : Commentary by Cast, Crew or Special Guest #2 (Dolby Digital Audio / 2.0 / 48 kHz / 192 kbps)
Language : English
Service kind : Complete Main
Default : No
Forced : No

Text #1
ID : 6
Format : PGS
Muxing mode : zlib
Codec ID : S_HDMV/PGS
Codec ID/Info : Picture based subtitle format used on BDs/HD-DVDs
Duration : 39 min 51 s
Bit rate : 43.2 kb/s
Count of elements : 1188
Stream size : 12.3 MiB (0%)
Title : SDH
Language : English
Default : No
Forced : No

Text #2
ID : 7
Format : PGS
Muxing mode : zlib
Codec ID : S_HDMV/PGS
Codec ID/Info : Picture based subtitle format used on BDs/HD-DVDs
Duration : 39 min 8 s
Bit rate : 31.8 kb/s
Count of elements : 820
Stream size : 8.91 MiB (0%)
Language : German
Default : No
Forced : No

Menu
00:00:00.000 : en: Chapter 1
00:04:30.353 : en: Chapter 2
00:07:26.863 : en: Chapter 3
00:11:46.331 : en: Chapter 4
00:14:30.244 : en: Chapter 5
00:17:35.596 : en: Chapter 6
00:20:59.341 : en: Chapter 7
00:23:00.170 : en: Chapter 8
00:26:43.727 : en: Chapter 9
00:29:56.753 : en: Chapter 10
00:33:10.322 : en: Chapter 11
00:35:04.811 : en: Chapter 12


Visite nosso fórum / Siga-nos no Twitter / BaixarTurbo.com

Lobo Adolescente Bluray 1080p Bluray Remux 4K UHD 2160p HDR

Entrar

Não tem uma conta? Cadastre-se
Inscrever-se

Já tem uma conta? Entrar