Lances da vida(One Tree Hill) – Coleção Completa

Lances da Vida – Nathan e Lucas são dois meio irmãos que só tem em comum o pai Dan Scott e o dom para jogar basquete. Nathan foi criado como o queridinho do papai e sempre teve de tudo, ele é ídolo do time de basquete e o garoto mais popular da escola, enquanto o solitário Lucas foi criado por sua mãe Karen e pelo tio paterno Keith, com muita dificuldade e, apesar de ser um excelente jogador de basquete, só joga por diversão. O destino faz com que as vidas dos dois se cruzem e Lucas tem a chance de jogar novamente no time do colégio, o que provoca a raiva de Nathan e do seu pai que não quer que nada ou ninguém venha atrapalhar a trajetória profissional que ele sonhou para si no passado e agora traçou para o seu filho. A disputa entre os garotos não vai ser apenas pelo controle da quadra de basquete, mas também pelo amor da bela Peyton, uma líder de torcida e atual namorada de Nathan.

Lances da Vida

Título Original: One Treel Hill
Qualidade: WEB-DL 1080p
Áudio: Dual Áudio
Legenda: Embutida (selecionável)
 
Download WEB-DL 1080p
 

Lances da Vida Bluray 1080p Bluray Remux 4K UHD 2160p HDR

Spoiler

General
Unique ID : 161278891463705875913681438777426709773 (0x79552F4502757E199C4FBBC5CA360D0D)
Complete name : D:\One.Tree.Hill.S01.1080p.GLP.WEB-DL.H264-PD.Dual-JHOM\One.Tree.Hill.S01E01.1080p.GLP.WEB-DL.H264-PD.Dual-JHOM.mkv
Format : Matroska
Format version : Version 4
File size : 976 MiB
Duration : 42 min 21 s
Overall bit rate : 3 223 kb/s
Encoded date : UTC 2020-08-18 18:17:04
Writing application : HandBrake 1.3.1 2020010400
Writing library : Lavf58.29.100
ErrorDetectionType : Per level 1

Video
ID : 1
Format : AVC
Format/Info : Advanced Video Codec
Format profile : [email protected]
Format settings : CABAC / 4 Ref Frames
Format settings, CABAC : Yes
Format settings, Reference : 4 frames
Codec ID : V_MPEG4/ISO/AVC
Duration : 42 min 21 s
Bit rate : 2 450 kb/s
Width : 1 904 pixels
Height : 1 072 pixels
Display aspect ratio : 16:9
Frame rate mode : Constant
Frame rate : 29.970 (30000/1001) FPS
Color space : YUV
Chroma subsampling : 4:2:0
Bit depth : 8 bits
Scan type : Progressive
Bits/(Pixel*Frame) : 0.040
Stream size : 724 MiB (74%)
Writing library : x264 core 157 r2935 545de2f
Encoding settings : cabac=1 / ref=1 / deblock=1:-1:-1 / analyse=0x3:0x113 / me=hex / subme=2 / psy=1 / psy_rd=1.00:0.15 / mixed_ref=0 / me_range=16 / chroma_me=1 / trellis=0 / 8x8dct=1 / cqm=0 / deadzone=21,11 / fast_pskip=1 / chroma_qp_offset=0 / threads=12 / lookahead_threads=4 / sliced_threads=0 / nr=0 / decimate=1 / interlaced=0 / bluray_compat=0 / constrained_intra=0 / bframes=3 / b_pyramid=2 / b_adapt=1 / b_bias=0 / direct=1 / weightb=1 / open_gop=0 / weightp=1 / keyint=300 / keyint_min=30 / scenecut=40 / intra_refresh=0 / rc_lookahead=10 / rc=2pass / mbtree=1 / bitrate=2450 / ratetol=1.0 / qcomp=0.60 / qpmin=0 / qpmax=69 / qpstep=4 / cplxblur=20.0 / qblur=0.5 / vbv_maxrate=62500 / vbv_bufsize=78125 / nal_hrd=none / filler=0 / ip_ratio=1.40 / aq=1:1.00
Default : Yes
Forced : No
Color range : Limited
Color primaries : BT.709
Transfer characteristics : BT.709
Matrix coefficients : BT.709

Audio #1
ID : 2
Format : AC-3
Format/Info : Audio Coding 3
Commercial name : Dolby Digital
Codec ID : A_AC3
Duration : 42 min 21 s
Bit rate mode : Constant
Bit rate : 384 kb/s
Channel(s) : 2 channels
Channel layout : L R
Sampling rate : 48.0 kHz
Frame rate : 31.250 FPS (1536 SPF)
Compression mode : Lossy
Delay relative to video : -5 ms
Stream size : 116 MiB (12%)
Title : Stereo
Language : Portuguese
Service kind : Complete Main
Default : Yes
Forced : No

Audio #2
ID : 3
Format : AC-3
Format/Info : Audio Coding 3
Commercial name : Dolby Digital
Codec ID : A_AC3
Duration : 42 min 21 s
Bit rate mode : Constant
Bit rate : 384 kb/s
Channel(s) : 2 channels
Channel layout : L R
Sampling rate : 48.0 kHz
Frame rate : 31.250 FPS (1536 SPF)
Compression mode : Lossy
Delay relative to video : -5 ms
Stream size : 116 MiB (12%)
Title : Stereo
Language : English
Service kind : Complete Main
Default : No
Forced : No


Visite nosso fórum / Siga-nos no Twitter / BaixarTurbo.com

Lances da Vida Bluray 1080p Bluray Remux 4K UHD 2160p HDR

Entrar

Não tem uma conta? Cadastre-se
Inscrever-se

Já tem uma conta? Entrar