Kenpuu Denki Berserk

Guts, um homem que se auto intitula “O Espadachim Negro”, passa os seus dias servindo a um grupo de mercenários, o Bando do Falcão, conhecido como “O Ceifador do Campo de Batalha. Liderado por um homem ambicioso, cruel, e inteligente chamado Griffith, juntos eles batalham para cruzar o caminho para a corte real, porém são forçados a um destino que pode mudar suas vidas inteiras.

Berserk

Título Original: Berserk
Qualidade: Remux 1080p
Áudio: Japonês
Legenda: Embutida (selecionável)
 
Download Remux 1080p
 

Berserk Bluray 1080p Bluray Remux 4K UHD 2160p HDR

Spoiler

General
Unique ID : 140630239682952115135696897385010566717 (0x69CC6622D8076E582FA024198610163D)
Complete name : D:\1997 – Berserk\Berserk – 1º Temporada – EP. 01 – [REMUX].mkv
Format : Matroska
Format version : Version 4
File size : 6.01 GiB
Duration : 23 min 39 s
Overall bit rate mode : Variable
Overall bit rate : 36.3 Mb/s
Encoded date : UTC 2022-04-11 15:00:50
Writing application : mkvmerge v66.0.0 (‘Josie’) 64-bit
Writing library : libebml v1.4.2 + libmatroska v1.6.4

Video
ID : 1
Format : AVC
Format/Info : Advanced Video Codec
Format profile : High@L4.1
Format settings : CABAC / 4 Ref Frames
Format settings, CABAC : Yes
Format settings, Reference : 4 frames
Codec ID : V_MPEG4/ISO/AVC
Duration : 23 min 39 s
Bit rate mode : Variable
Bit rate : 34.8 Mb/s
Maximum bit rate : 40.0 Mb/s
Width : 1 920 pixels
Height : 1 080 pixels
Display aspect ratio : 16:9
Frame rate mode : Constant
Frame rate : 23.976 (24000/1001) FPS
Color space : YUV
Chroma subsampling : 4:2:0
Bit depth : 8 bits
Scan type : Progressive
Bits/(Pixel*Frame) : 0.700
Stream size : 5.75 GiB (96%)
Language : Japanese
Default : Yes
Forced : No

Audio
ID : 2
Format : PCM
Format settings : Little / Signed
Codec ID : A_PCM/INT/LIT
Duration : 23 min 39 s
Bit rate mode : Constant
Bit rate : 1 536 kb/s
Channel(s) : 2 channels
Sampling rate : 48.0 kHz
Frame rate : 200.000 FPS (240 SPF)
Bit depth : 16 bits
Stream size : 260 MiB (4%)
Language : Japanese
Default : Yes
Forced : No

Text
ID : 3
Format : PGS
Muxing mode : zlib
Codec ID : S_HDMV/PGS
Codec ID/Info : Picture based subtitle format used on BDs/HD-DVDs
Duration : 23 min 34 s
Bit rate : 25.6 kb/s
Frame rate : 0.349 FPS
Count of elements : 494
Stream size : 4.31 MiB (0%)
Language : Portuguese
Default : Yes
Forced : No


Visite nosso fórum / Siga-nos no Twitter / BaixarTurbo.com

Berserk Bluray 1080p Bluray Remux 4K UHD 2160p HDR

Entrar

Não tem uma conta? Cadastre-se
Inscrever-se

Já tem uma conta? Entrar