Jujutsu Kaisen

Jujutsu Kaisen Yuji é um gênio do atletismo, mas não tem interesse algum em ficar correndo em círculos. Ele é feliz como membro no Clube de Estudo de Fenômenos Psíquicos. Apesar de estar no clube apenas por diversão, tudo fica sério quando um espírito de verdade aparece na escola! A vida está prestes a se tornar muito interessante na Escola Sugisawa…

Jujutsu Kaisen

Título Original: Jujutsu Kaisen
Qualidade: Remux
Áudio: Dual Áudio
Legenda: Embutida (selecionável)
 
Download Remux 1080p
 

Jujutsu Kaisen Bluray 1080p Bluray Remux 4K UHD 2160p HDR

Spoiler

General
Unique ID : 293748416515911740673926439922412907524 (0xDCFDE31C28E1C9010178E5CCAC8D6C04)
Complete name : D:\2020 – Jujutsu Kaisen – [1º Temporada]\Jujutsu Kaisen – 1º Temporada – EP. 001 – [REMUX].mkv
Format : Matroska
Format version : Version 4
File size : 6.13 GiB
Duration : 23 min 56 s
Overall bit rate mode : Variable
Overall bit rate : 36.6 Mb/s
Encoded date : UTC 2022-01-08 17:48:30
Writing application : mkvmerge v63.0.0 (‘Everything’) 64-bit
Writing library : libebml v1.4.2 + libmatroska v1.6.4
Cover : Yes
Attachments : Baqa.otf / Barthowheel-Regular.ttf / BIP.ttf / Boopee.ttf / Brush-Strokes.ttf / Cabin-Bold.ttf / Cabin-Bold-Italic.ttf / Cocon-Next.OTF / D3-Streetism.ttf / FolkPro-En-Bold.OTF / Janda-Manatee-Solid.ttf / KG-HAPPY-Solid.ttf / Ragnar.ttf / arial.ttf / AT-Amigo.ttf / AveriaSans-Light.ttf / cover.jpg / GandhiSans-Bold.otf / GandhiSans-BoldItalic.otf

Video
ID : 1
Format : AVC
Format/Info : Advanced Video Codec
Format profile : High@L4.1
Format settings : CABAC / 4 Ref Frames
Format settings, CABAC : Yes
Format settings, Reference : 4 frames
Codec ID : V_MPEG4/ISO/AVC
Duration : 23 min 56 s
Bit rate mode : Variable
Bit rate : 35.1 Mb/s
Maximum bit rate : 40.0 Mb/s
Width : 1 920 pixels
Height : 1 080 pixels
Display aspect ratio : 16:9
Frame rate mode : Constant
Frame rate : 23.976 (24000/1001) FPS
Color space : YUV
Chroma subsampling : 4:2:0
Bit depth : 8 bits
Scan type : Progressive
Bits/(Pixel*Frame) : 0.705
Stream size : 5.86 GiB (96%)
Language : Japanese
Default : Yes
Forced : No

Audio #1
ID : 2
Format : AAC LC
Format/Info : Advanced Audio Codec Low Complexity
Codec ID : A_AAC-2
Duration : 23 min 55 s
Bit rate : 96.0 kb/s
Channel(s) : 2 channels
Channel layout : L R
Sampling rate : 44.1 kHz
Frame rate : 43.066 FPS (1024 SPF)
Compression mode : Lossy
Delay relative to video : 1 s 0 ms
Stream size : 16.4 MiB (0%)
Language : Portuguese
Default : Yes
Forced : No

Audio #2
ID : 3
Format : FLAC
Format/Info : Free Lossless Audio Codec
Codec ID : A_FLAC
Duration : 23 min 56 s
Bit rate mode : Variable
Bit rate : 1 444 kb/s
Channel(s) : 2 channels
Channel layout : L R
Sampling rate : 48.0 kHz
Frame rate : 11.719 FPS (4096 SPF)
Bit depth : 24 bits
Compression mode : Lossless
Stream size : 247 MiB (4%)
Writing library : libFLAC 1.2.1 (UTC 2007-09-17)
Language : Japanese
Default : No
Forced : No

Text #1
ID : 4
Format : ASS
Codec ID : S_TEXT/ASS
Codec ID/Info : Advanced Sub Station Alpha
Duration : 23 min 53 s
Bit rate : 206 b/s
Frame rate : 0.340 FPS
Count of elements : 487
Compression mode : Lossless
Stream size : 36.1 KiB (0%)
Title : Crunchyroll FULL
Language : Portuguese
Default : Yes
Forced : No

Text #2
ID : 5
Format : ASS
Codec ID : S_TEXT/ASS
Codec ID/Info : Advanced Sub Station Alpha
Duration : 22 min 50 s
Bit rate : 43 b/s
Frame rate : 0.047 FPS
Count of elements : 65
Compression mode : Lossless
Stream size : 7.35 KiB (0%)
Title : Crunchyroll FORCED
Language : Portuguese
Default : No
Forced : No

Menu
00:00:00.000 : en:Intro
00:00:55.950 : en:Opening
00:02:26.000 : en:Part A
00:11:44.140 : en:Part B
00:23:45.990 : en:Preview


Visite nosso fórum / Siga-nos no Twitter / BaixarTurbo.com

Jujutsu Kaisen Bluray 1080p Bluray Remux 4K UHD 2160p HDR

Entrar

Não tem uma conta? Cadastre-se
Inscrever-se

Já tem uma conta? Entrar