Jovens Bruxas(Charmed) – Coleção completa

Um grupo de irmãs descobre que são bruxas. Felizmente, para o mundo, eles são boas. Unindo-se em sua antiga casa em São Francisco, eles trabalham juntos para combater o mal, cada uma possuindo um poder especial específico.

Jovens Bruxas

Título Original: Charmed
Qualidade: WEB-DL 720p
Áudio: Dual Áudio
Legenda: Embutida (selecionável)
 
Download WEB-DL 720p
 

Jovens Bruxas Bluray 1080p Bluray Remux 4K UHD 2160p HDR

Spoiler

General
Unique ID : 154232391969886965991575473026381388461 (0x740814058011C468935A006D6E841AAD)
Complete name : D:\Charmed.1998.S01.720p.WEB-DL.AAC2.0.×264.DUAL-G4RiS\Charmed.1998.S01E01.Tem.bruxaria.vindo.por.aí.720p.WEB-DL.AAC2.0.×264.DUAL-G4RiS.mkv
Format : Matroska
Format version : Version 4
File size : 1.00 GiB
Duration : 43 min 27 s
Overall bit rate : 3 296 kb/s
Encoded date : UTC 2020-06-01 23:01:00
Writing application : mkvmerge v46.0.0 (‘No Deeper Escape’) 64-bit
Writing library : libebml v1.3.10 + libmatroska v1.5.2

Video
ID : 1
Format : AVC
Format/Info : Advanced Video Codec
Format profile : [email protected]
Format settings : CABAC / 2 Ref Frames
Format settings, CABAC : Yes
Format settings, Reference : 2 frames
Format settings, GOP : M=2, N=30
Codec ID : V_MPEG4/ISO/AVC
Duration : 43 min 27 s
Bit rate : 3 038 kb/s
Width : 1 280 pixels
Height : 720 pixels
Display aspect ratio : 16:9
Frame rate mode : Constant
Frame rate : 29.970 (29970/1000) FPS
Color space : YUV
Chroma subsampling : 4:2:0
Bit depth : 8 bits
Scan type : Progressive
Bits/(Pixel*Frame) : 0.110
Stream size : 944 MiB (92%)
Writing library : x264 core 155
Encoding settings : cabac=1 / ref=2 / deblock=1:0:0 / analyse=0x3:0x113 / me=hex / subme=4 / psy=1 / psy_rd=1.00:0.00 / mixed_ref=0 / me_range=16 / chroma_me=1 / trellis=1 / 8x8dct=1 / cqm=0 / deadzone=21,11 / fast_pskip=1 / chroma_qp_offset=0 / threads=22 / lookahead_threads=5 / sliced_threads=0 / nr=0 / decimate=1 / interlaced=0 / bluray_compat=0 / constrained_intra=0 / bframes=1 / b_pyramid=0 / b_adapt=1 / b_bias=0 / direct=1 / weightb=1 / open_gop=0 / weightp=1 / keyint=30 / keyint_min=16 / scenecut=0 / intra_refresh=0 / rc=2pass / mbtree=0 / bitrate=3038 / ratetol=1.0 / qcomp=0.60 / qpmin=0 / qpmax=69 / qpstep=4 / cplxblur=20.0 / qblur=0.5 / ip_ratio=1.40 / pb_ratio=1.30 / aq=1:1.00
Language : Portuguese
Default : Yes
Forced : No

Audio #1
ID : 2
Format : AAC LC
Format/Info : Advanced Audio Codec Low Complexity
Codec ID : A_AAC-2
Duration : 43 min 27 s
Bit rate : 128 kb/s
Channel(s) : 2 channels
Channel layout : L R
Sampling rate : 44.1 kHz
Frame rate : 43.066 FPS (1024 SPF)
Compression mode : Lossy
Stream size : 39.8 MiB (4%)
Language : Portuguese
Default : No
Forced : No

Audio #2
ID : 3
Format : AAC LC
Format/Info : Advanced Audio Codec Low Complexity
Codec ID : A_AAC-2
Duration : 43 min 27 s
Bit rate : 128 kb/s
Channel(s) : 2 channels
Channel layout : L R
Sampling rate : 44.1 kHz
Frame rate : 43.066 FPS (1024 SPF)
Compression mode : Lossy
Stream size : 39.8 MiB (4%)
Language : English
Default : No
Forced : No


Visite nosso fórum / Siga-nos no Twitter / BaixarTurbo.com

Jovens Bruxas Bluray 1080p Bluray Remux 4K UHD 2160p HDR

Entrar

Não tem uma conta? Cadastre-se
Inscrever-se

Já tem uma conta? Entrar