Jiraiya: O Incrível Ninja

Toha Yamaji / Jiraiya (Takumi Tsutsui) é um guerreiro ninja que foi treinado por seu pai adotivo, Tetsuzan Yamaji (Masaaki Hatsumi), um sábio mestre das artes marciais para ser seu sucessor na Família Togakure. Seu principal desafio é enfrentar o maligno clã da Família de Feiticeiros, que procura Pako, um antigo mapa para um misterioso tesouro.

Jiraiya, o Incrível Ninja

Título Original: World Ninja War Jiraiya
Qualidade: UPSCALE 1080p
Áudio: Dual Áudio
Legenda: Embutida (selecionável)
Adicionado Episódio 01 – 05
 
Download UPSCALE 1080p
 

Jiraiya, o Incrível Ninja Bluray 1080p Bluray Remux 4K UHD 2160p HDR

Spoiler

General
Unique ID : 37277580625341181071612812171078756033 (0x1C0B669FF1E4983813FC413AEC0B66C1)
Complete name : C:\Users\Giu\Desktop\SAINT SEIYA\Jiraiya\Jiraya.S01E01 Paco, A Cápsula Miraculo UPSCALE 1080p.mkv
Format : Matroska
Format version : Version 4
File size : 2.36 GiB
Duration : 23 min 34 s
Overall bit rate : 14.3 Mb/s
Encoded date : UTC 2022-10-19 11:55:47
Writing application : mkvmerge v70.0.0 (‘Caught A Lite Sneeze’) 64-bit
Writing library : libebml v1.4.2 + libmatroska v1.6.4

Video
ID : 1
Format : AVC
Format/Info : Advanced Video Codec
Format profile : Baseline@L4
Format settings : 1 Ref Frames
Format settings, CABAC : No
Format settings, Reference : 1 frame
Format settings, GOP : M=1, N=12
Codec ID : V_MPEG4/ISO/AVC
Duration : 23 min 34 s
Bit rate : 14.0 Mb/s
Width : 1 920 pixels
Height : 1 080 pixels
Display aspect ratio : 16:9
Frame rate mode : Constant
Frame rate : 29.970 (30000/1001) FPS
Color space : YUV
Chroma subsampling : 4:2:0
Bit depth : 8 bits
Scan type : Progressive
Bits/(Pixel*Frame) : 0.226
Stream size : 2.31 GiB (98%)
Writing library : x264 core 157 r2970 5493be8
Encoding settings : cabac=0 / ref=1 / deblock=0:0:0 / analyse=0:0 / me=dia / subme=0 / psy=1 / psy_rd=1.00:0.00 / mixed_ref=0 / me_range=16 / chroma_me=1 / trellis=0 / 8x8dct=0 / cqm=0 / deadzone=21,11 / fast_pskip=1 / chroma_qp_offset=0 / threads=8 / lookahead_threads=1 / sliced_threads=0 / nr=0 / decimate=1 / interlaced=0 / bluray_compat=0 / constrained_intra=0 / bframes=0 / weightp=0 / keyint=12 / keyint_min=1 / scenecut=0 / intra_refresh=0 / rc=crf / mbtree=0 / crf=20.0 / qcomp=0.60 / qpmin=0 / qpmax=69 / qpstep=4 / ip_ratio=1.40 / aq=0
Default : Yes
Forced : No

Audio #1
ID : 2
ID in the original source m : 189 (0xBD)129 (0x81)
Format : AC-3
Format/Info : Audio Coding 3
Commercial name : Dolby Digital
Codec ID : A_AC3
Duration : 23 min 34 s
Bit rate mode : Constant
Bit rate : 160 kb/s
Channel(s) : 2 channels
Channel layout : L R
Sampling rate : 48.0 kHz
Frame rate : 31.250 FPS (1536 SPF)
Compression mode : Lossy
Stream size : 27.0 MiB (1%)
Title : Stereo
Language : Portuguese
Service kind : Complete Main
Default : Yes
Forced : No
Original source medium : DVD-Video

Audio #2
ID : 3
ID in the original source m : 189 (0xBD)128 (0x80)
Format : AC-3
Format/Info : Audio Coding 3
Commercial name : Dolby Digital
Codec ID : A_AC3
Duration : 23 min 34 s
Bit rate mode : Constant
Bit rate : 160 kb/s
Channel(s) : 2 channels
Channel layout : L R
Sampling rate : 48.0 kHz
Frame rate : 31.250 FPS (1536 SPF)
Compression mode : Lossy
Stream size : 27.0 MiB (1%)
Title : Stereo
Language : Japanese
Service kind : Complete Main
Default : No
Forced : No
Original source medium : DVD-Video

Text
ID : 4
ID in the original source m : 189 (0xBD)32 (0x20)
Format : VobSub
Muxing mode : zlib
Codec ID : S_VOBSUB
Codec ID/Info : Picture based subtitle format used on DVDs
Duration : 23 min 27 s
Bit rate : 2 782 b/s
Frame rate : 0.174 FPS
Count of elements : 245
Stream size : 478 KiB (0%)
Language : Portuguese
Default : No
Forced : No
Original source medium : DVD-Video

Menu
00:00:00.000 : en:Chapter 01
00:01:25.085 : en:Chapter 02
00:10:29.295 : en:Chapter 03
00:21:36.295 : en:Chapter 04
00:23:00.962 : en:Chapter 05


Visite nosso fórum / Siga-nos no Twitter / BaixarTurbo.com

Jiraiya, o Incrível Ninja Bluray 1080p Bluray Remux 4K UHD 2160p HDR

Comentários

Entrar

Não tem uma conta? Cadastre-se
Inscrever-se

Já tem uma conta? Entrar