InuYasha – Completo

InuYasha é um hanyou, por ser filho de um youkai e de uma humana. Desta forma, os youkais possuem poderes diferenciados. Kagome Higurashi é uma garota japonesa dos tempos atuais e ainda estudante colegial. Certa vez ela descobre uma passagem secreta em um poço de sua casa, que é um templo muito antigo, e volta no tempo, para o Japão feudal, onde encontra InuYasha.

Inuyasha

Título Original: Inuyasha
Qualidade: Bluray 1080p
Áudio: Dual Áudio
Legenda: Embutida (selecionável)
 
Download Bluray 1080p
 

Inuyasha Bluray 1080p Bluray Remux 4K UHD 2160p HDR

Spoiler

General
Unique ID : 265471100029422049696782995231904279419 (0xC7B7DFC477B76A0D8DA02A6734FAAB7B)
Complete name : D:\2000 – InuYasha – 01ª Temporada\InuYasha – Episódio 001 – A Garota que Volta no Tempo e o Garoto Lacrado.mkv
Format : Matroska
Format version : Version 4
File size : 498 MiB
Duration : 24 min 7 s
Overall bit rate : 2 886 kb/s
Encoded date : UTC 2020-12-25 01:03:37
Writing application : mkvmerge v51.0.0 (‘I Wish’) 64-bit
Writing library : libebml v1.4.0 + libmatroska v1.6.2

Video
ID : 1
Format : AVC
Format/Info : Advanced Video Codec
Format profile : High@L4.1
Format settings : CABAC / 8 Ref Frames
Format settings, CABAC : Yes
Format settings, Reference : 8 frames
Codec ID : V_MPEG4/ISO/AVC
Duration : 24 min 6 s
Bit rate : 2 500 kb/s
Width : 1 444 pixels
Height : 1 080 pixels
Display aspect ratio : 4:3
Frame rate mode : Constant
Frame rate : 23.976 (24000/1001) FPS
Color space : YUV
Chroma subsampling : 4:2:0
Bit depth : 8 bits
Scan type : Interlaced
Original scan type : Progressive
Scan type, store method : Separated fields (2 fields per block)
Scan order : Bottom Field First
Bits/(Pixel*Frame) : 0.067
Stream size : 431 MiB (87%)
Writing library : x264 core 157 r2935
Encoding settings : cabac=1 / ref=8 / deblock=1:0:0 / analyse=0x3:0x133 / me=umh / subme=9 / psy=1 / psy_rd=1.00:0.00 / mixed_ref=0 / me_range=16 / chroma_me=1 / trellis=2 / 8x8dct=1 / cqm=0 / deadzone=21,11 / fast_pskip=1 / chroma_qp_offset=-2 / threads=12 / lookahead_threads=1 / sliced_threads=0 / nr=0 / decimate=1 / interlaced=0 / bluray_compat=0 / constrained_intra=0 / bframes=3 / b_pyramid=0 / b_adapt=2 / b_bias=0 / direct=3 / weightb=1 / open_gop=0 / weightp=2 / keyint=239 / keyint_min=23 / scenecut=40 / intra_refresh=0 / rc_lookahead=60 / rc=abr / mbtree=1 / bitrate=2500 / ratetol=1.0 / qcomp=0.60 / qpmin=10 / qpmax=69 / qpstep=4 / vbv_maxrate=3000 / vbv_bufsize=24000 / nal_hrd=none / filler=0 / ip_ratio=1.40 / aq=3:1.00
Default : No
Forced : No
Color range : Limited
Color primaries : BT.709
Transfer characteristics : BT.709
Matrix coefficients : BT.709

Audio #1
ID : 2
Format : AC-3
Format/Info : Audio Coding 3
Commercial name : Dolby Digital
Codec ID : A_AC3
Duration : 24 min 7 s
Bit rate mode : Constant
Bit rate : 192 kb/s
Channel(s) : 2 channels
Channel layout : L R
Sampling rate : 48.0 kHz
Frame rate : 31.250 FPS (1536 SPF)
Compression mode : Lossy
Stream size : 33.1 MiB (7%)
Title : Português – BR (Remasterizado por YusukeFLA)
Language : Portuguese
Service kind : Complete Main
Default : No
Forced : Yes

Audio #2
ID : 3
Format : AC-3
Format/Info : Audio Coding 3
Commercial name : Dolby Digital
Codec ID : A_AC3
Duration : 24 min 7 s
Bit rate mode : Constant
Bit rate : 192 kb/s
Channel(s) : 2 channels
Channel layout : L R
Sampling rate : 48.0 kHz
Frame rate : 31.250 FPS (1536 SPF)
Compression mode : Lossy
Stream size : 33.1 MiB (7%)
Language : Japanese
Service kind : Complete Main
Default : No
Forced : No

Text #1
ID : 4
Format : ASS
Codec ID : S_TEXT/ASS
Codec ID/Info : Advanced Sub Station Alpha
Duration : 27 s 100 ms
Bit rate : 258 b/s
Frame rate : 0.443 FPS
Count of elements : 12
Compression mode : Lossless
Stream size : 875 Bytes (0%)
Title : Prévia
Language : Portuguese
Default : Yes
Forced : Yes

Text #2
ID : 5
Format : ASS
Codec ID : S_TEXT/ASS
Codec ID/Info : Advanced Sub Station Alpha
Duration : 23 min 53 s
Bit rate : 331 b/s
Frame rate : 0.244 FPS
Count of elements : 349
Compression mode : Lossless
Stream size : 58.0 KiB (0%)
Title : Shakaw (Edição: SonnyVictor)
Language : Portuguese
Default : No
Forced : No


Visite nosso fórum / Siga-nos no Twitter / BaixarTurbo.com

Inuyasha Bluray 1080p Bluray Remux 4K UHD 2160p HDR

Entrar

Não tem uma conta? Cadastre-se
Inscrever-se

Já tem uma conta? Entrar