Fly, o Pequeno Guerreiro

Quando Fly ainda era um bebê, foi adotado por Blass, um generoso monstro habitante da ilha Delmin. As aventuras de Fly começam quando ele tem que abandonar a ilha para salvar seu monstro amigo Gomen, que foi seqüestrado. Depois ele salva a princesa Leona, de quem recebe a adaga de Papnica. Na seqüência Fly passa a ser treinado por Avan, um renomado herói enviado pelo próprio rei de Papnica. A partir daí Fly e Leona enfrentam grandes criaturas, e por trás de tudo está envolvido Hadler, o inimigo principal da história. Fly possuía uma marca em sua testa na forma da face de um dragão, sempre que ficava com muita raiva, ou quando um de seus amigos estava em perigo o seu verdadeiro poder se manifestava e essa marca aparecia, muitas vezes quando isso acontecia Fly ficava inconsciente e lutava com seu poder máximo.

Fly, o Pequeno Guerreiro

Título Original: Dragon Quest
Qualidade: Remux 1080p
Áudio: Dual Áudio
Legenda: Embutida (selecionável)
 
Download Remux 1080p
 

Fly, o Pequeno Guerreiro Bluray 1080p Bluray Remux 4K UHD 2160p HDR

Spoiler

General
Unique ID : 308171123824530761791338085927241161281 (0xE7D7997B404A4BD53E1DBC25DE609A41)
Complete name : D:\1991 – Fly – O Pequeno Guerreiro – [Anime]\Fly – O Pequeno Guerreiro – 1º Temporada – EP. 24 – [REMUX].mkv
Format : Matroska
Format version : Version 4
File size : 4.36 GiB
Duration : 24 min 28 s
Overall bit rate mode : Variable
Overall bit rate : 25.5 Mb/s
Encoded date : UTC 2022-05-11 23:22:41
Writing application : mkvmerge v67.0.0 (‘Under Stars’) 64-bit
Writing library : libebml v1.4.2 + libmatroska v1.6.4
Cover : Yes
Attachments : cover_1.jpg

Video
ID : 1
Format : AVC
Format/Info : Advanced Video Codec
Format profile : High@L4.1
Format settings : CABAC / 4 Ref Frames
Format settings, CABAC : Yes
Format settings, Reference : 4 frames
Codec ID : V_MPEG4/ISO/AVC
Duration : 24 min 28 s
Bit rate mode : Variable
Bit rate : 23.0 Mb/s
Maximum bit rate : 40.0 Mb/s
Width : 1 920 pixels
Height : 1 080 pixels
Display aspect ratio : 16:9
Frame rate mode : Constant
Frame rate : 23.976 (24000/1001) FPS
Color space : YUV
Chroma subsampling : 4:2:0
Bit depth : 8 bits
Scan type : Progressive
Bits/(Pixel*Frame) : 0.463
Stream size : 3.93 GiB (90%)
Language : Japanese
Default : Yes
Forced : No

Audio #1
ID : 2
Format : AC-3
Format/Info : Audio Coding 3
Commercial name : Dolby Digital
Codec ID : A_AC3
Duration : 24 min 28 s
Bit rate mode : Constant
Bit rate : 192 kb/s
Channel(s) : 2 channels
Channel layout : L R
Sampling rate : 48.0 kHz
Frame rate : 31.250 FPS (1536 SPF)
Compression mode : Lossy
Stream size : 33.6 MiB (1%)
Language : Portuguese
Service kind : Complete Main
Default : Yes
Forced : No

Audio #2
ID : 3
Format : PCM
Format settings : Little / Signed
Codec ID : A_PCM/INT/LIT
Duration : 24 min 28 s
Bit rate mode : Constant
Bit rate : 2 304 kb/s
Channel(s) : 2 channels
Sampling rate : 48.0 kHz
Frame rate : 200.000 FPS (240 SPF)
Bit depth : 24 bits
Stream size : 403 MiB (9%)
Language : Japanese
Default : No
Forced : No

Text
ID : 4
Format : ASS
Codec ID : S_TEXT/ASS
Codec ID/Info : Advanced Sub Station Alpha
Duration : 1 min 56 s
Bit rate : 6 956 b/s
Frame rate : 7.039 FPS
Count of elements : 821
Compression mode : Lossless
Stream size : 99.1 KiB (0%)
Language : Portuguese
Default : Yes
Forced : No


Visite nosso fórum / Siga-nos no Twitter / BaixarTurbo.com

Fly, o Pequeno Guerreiro Bluray 1080p Bluray Remux 4K UHD 2160p HDR

Entrar

Não tem uma conta? Cadastre-se
Inscrever-se

Já tem uma conta? Entrar