DuckTales: Os Caçadores de Aventuras

Tio Patinhas, Huguinho, Zezinho e Luizinho se encontram em todos os tipos de aventuras nesta que foi série de desenho animado de maior sucesso produzido pelos estúdios de Walt Disney.

DuckTales: Os Caçadores de Aventuras

Título Original: DuckTales
Qualidade: Upscale 1080p
Áudio: Dual Áudio
Legenda: Embutida (selecionável)
Adicionado Episódio 51 – 100 (Desenho Completo)
 
Download UPSCALE 1080p
 

DuckTales: Os Caçadores de Aventuras Bluray 1080p Bluray Remux 4K UHD 2160p HDR

Spoiler

General
Complete name : C:\Users\Giu\Desktop\[1987] DuckTales – Os Caçadores de Aventuras\DuckTales – 01 – Não Abandone o Navio.mp4
Format : MPEG-4
Format profile : Base Media
Codec ID : isom (isom/iso2/avc1/mp41)
File size : 2.07 GiB
Duration : 22 min 50 s
Overall bit rate : 13.0 Mb/s
Writing application : Lavf58.20.100

Video
ID : 1
Format : AVC
Format/Info : Advanced Video Codec
Format profile : Baseline@L4
Format settings : 1 Ref Frames
Format settings, CABAC : No
Format settings, Reference : 1 frame
Format settings, GOP : M=1, N=12
Codec ID : avc1
Codec ID/Info : Advanced Video Coding
Duration : 22 min 50 s
Bit rate : 12.9 Mb/s
Width : 1 920 pixels
Height : 1 080 pixels
Display aspect ratio : 16:9
Frame rate mode : Constant
Frame rate : 23.976 (24000/1001) FPS
Color space : YUV
Chroma subsampling : 4:2:0
Bit depth : 8 bits
Scan type : Progressive
Bits/(Pixel*Frame) : 0.259
Stream size : 2.06 GiB (99%)
Writing library : x264 core 157 r2970 5493be8
Encoding settings : cabac=0 / ref=1 / deblock=0:0:0 / analyse=0:0 / me=dia / subme=0 / psy=1 / psy_rd=1.00:0.00 / mixed_ref=0 / me_range=16 / chroma_me=1 / trellis=0 / 8x8dct=0 / cqm=0 / deadzone=21,11 / fast_pskip=1 / chroma_qp_offset=0 / threads=8 / lookahead_threads=1 / sliced_threads=0 / nr=0 / decimate=1 / interlaced=0 / bluray_compat=0 / constrained_intra=0 / bframes=0 / weightp=0 / keyint=12 / keyint_min=1 / scenecut=0 / intra_refresh=0 / rc=crf / mbtree=0 / crf=20.0 / qcomp=0.60 / qpmin=0 / qpmax=69 / qpstep=4 / ip_ratio=1.40 / aq=0
Color range : Limited
Color primaries : BT.601 NTSC
Transfer characteristics : BT.709
Matrix coefficients : BT.601
Codec configuration box : avcC

Audio
ID : 2
Format : AAC LC
Format/Info : Advanced Audio Codec Low Complexity
Codec ID : mp4a-40-2
Duration : 22 min 50 s
Bit rate mode : Constant
Bit rate : 96.0 kb/s
Channel(s) : 2 channels
Channel layout : L R
Sampling rate : 48.0 kHz
Frame rate : 46.875 FPS (1024 SPF)
Compression mode : Lossy
Stream size : 15.8 MiB (1%)
Default : Yes
Alternate group : 1


Visite nosso fórum / Siga-nos no Twitter / BaixarTurbo.com

DuckTales: Os Caçadores de Aventuras Bluray 1080p Bluray Remux 4K UHD 2160p HDR

Entrar

Não tem uma conta? Cadastre-se
Inscrever-se

Já tem uma conta? Entrar