Dragon Ball Z

Cinco anos após vencer o Torneio Mundial de Artes Marciais, Goku tem uma vida pacífica com sua esposa e filho. No entanto, isso muda com a chegada de um misterioso inimigo chamado Raditz, que se apresenta como o irmão perdido de Goku e revela que ele é um guerreiro da raça Saiyan, e que originalmente foi enviado à Terra para conquista-la. Com sua tentativa fracassada de recrutar Goku como aliado, Raditz adverte Goku e seus amigos de que uma nova ameaça se aproxima rapidamente da Terra, uma que poderia mergulhar o planeta em um conflito intergaláctico e fazer os próprios céus tremerem. Uma guerra será travada pelas esferas místicas do dragão, e somente os mais fortes sobreviverão.

Dragon ball Z

Título Original: Dragon ball Z
Qualidade: Remux 1080p
Áudio: Dual Áudio
Legenda: Embutida (selecionável)
Adicionado Episódio 21 – 50
 
Download Bluray Remux 1080p
 

Dragon ball Z Bluray 1080p Bluray Remux 4K UHD 2160p HDR

Spoiler

General
Unique ID : 58660548649933206430796236074443370078 (0x2C219C5823D46E26E6FD84C6F2446E5E)
Complete name : C:\Users\Giu\Downloads\Video\Dragon_Ball_Z_Ep_001.mkv
Format : Matroska
Format version : Version 4
File size : 4.06 GiB
Duration : 24 min 13 s
Overall bit rate mode : Variable
Overall bit rate : 24.0 Mb/s
Movie name : Dragon Ball Z Season 1 Disc 1
Encoded date : UTC 2022-09-14 22:26:05
Writing application : mkvmerge v70.0.0 (‘Caught A Lite Sneeze’) 64-bit
Writing library : libebml v1.4.2 + libmatroska v1.6.4

Video
ID : 1
ID in the original source m : 4113 (0x1011)
Format : AVC
Format/Info : Advanced Video Codec
Format profile : [email protected]
Format settings : CABAC / 4 Ref Frames
Format settings, CABAC : Yes
Format settings, Reference : 4 frames
Codec ID : V_MPEG4/ISO/AVC
Duration : 24 min 13 s
Bit rate mode : Variable
Bit rate : 18.9 Mb/s
Maximum bit rate : 39.5 Mb/s
Width : 1 920 pixels
Height : 1 080 pixels
Display aspect ratio : 16:9
Frame rate mode : Constant
Frame rate : 23.976 (24000/1001) FPS
Color space : YUV
Chroma subsampling : 4:2:0
Bit depth : 8 bits
Scan type : Progressive
Bits/(Pixel*Frame) : 0.381
Stream size : 3.21 GiB (79%)
Language : English
Default : No
Forced : No
Original source medium : Blu-ray

Audio #1
ID : 2
ID in the original source m : 4352 (0x1100)
Format : MLP FBA
Format/Info : Meridian Lossless Packing FBA
Commercial name : Dolby TrueHD
Codec ID : A_TRUEHD
Duration : 24 min 13 s
Bit rate mode : Variable
Bit rate : 2 248 kb/s
Maximum bit rate : 3 189 kb/s
Channel(s) : 6 channels
Channel layout : L R C LFE Ls Rs
Sampling rate : 48.0 kHz
Frame rate : 1 200.000 FPS (40 SPF)
Bit depth : 24 bits
Compression mode : Lossless
Stream size : 389 MiB (9%)
Title : Surround 5.1
Language : English
Default : Yes
Forced : No
Original source medium : Blu-ray

Audio #2
ID : 3
ID in the original source m : 4352 (0x1100)
Format : AC-3
Format/Info : Audio Coding 3
Commercial name : Dolby Digital
Codec ID : A_AC3
Duration : 24 min 13 s
Bit rate mode : Constant
Bit rate : 384 kb/s
Channel(s) : 6 channels
Channel layout : L R C LFE Ls Rs
Sampling rate : 48.0 kHz
Frame rate : 31.250 FPS (1536 SPF)
Compression mode : Lossy
Stream size : 66.5 MiB (2%)
Title : Surround 5.1
Language : English
Service kind : Complete Main
Default : No
Forced : No
Original source medium : Blu-ray

Audio #3
ID : 4
ID in the original source m : 4353 (0x1101)
Format : MLP FBA
Format/Info : Meridian Lossless Packing FBA
Commercial name : Dolby TrueHD
Codec ID : A_TRUEHD
Duration : 24 min 13 s
Bit rate mode : Variable
Bit rate : 1 131 kb/s
Maximum bit rate : 1 557 kb/s
Channel(s) : 2 channels
Channel layout : L R
Sampling rate : 48.0 kHz
Frame rate : 1 200.000 FPS (40 SPF)
Bit depth : 24 bits
Compression mode : Lossless
Stream size : 196 MiB (5%)
Title : Stereo
Language : English
Default : No
Forced : No
Original source medium : Blu-ray

Audio #4
ID : 5
ID in the original source m : 4353 (0x1101)
Format : AC-3
Format/Info : Audio Coding 3
Commercial name : Dolby Digital
Codec ID : A_AC3
Duration : 24 min 13 s
Bit rate mode : Constant
Bit rate : 192 kb/s
Channel(s) : 2 channels
Channel layout : L R
Sampling rate : 48.0 kHz
Frame rate : 31.250 FPS (1536 SPF)
Compression mode : Lossy
Stream size : 33.3 MiB (1%)
Title : Stereo
Language : English
Service kind : Complete Main
Default : No
Forced : No
Original source medium : Blu-ray

Audio #5
ID : 6
ID in the original source m : 4354 (0x1102)
Format : MLP FBA
Format/Info : Meridian Lossless Packing FBA
Commercial name : Dolby TrueHD
Codec ID : A_TRUEHD
Duration : 24 min 13 s
Bit rate mode : Variable
Bit rate : 643 kb/s
Maximum bit rate : 828 kb/s
Channel(s) : 1 channel
Channel layout : C
Sampling rate : 48.0 kHz
Frame rate : 1 200.000 FPS (40 SPF)
Bit depth : 24 bits
Compression mode : Lossless
Stream size : 111 MiB (3%)
Title : Mono
Language : Japanese
Default : No
Forced : No
Original source medium : Blu-ray

Audio #6
ID : 7
ID in the original source m : 4354 (0x1102)
Format : AC-3
Format/Info : Audio Coding 3
Commercial name : Dolby Digital
Codec ID : A_AC3
Duration : 24 min 13 s
Bit rate mode : Constant
Bit rate : 96.0 kb/s
Channel(s) : 1 channel
Channel layout : C
Sampling rate : 48.0 kHz
Frame rate : 31.250 FPS (1536 SPF)
Compression mode : Lossy
Stream size : 16.6 MiB (0%)
Title : Mono
Language : Japanese
Service kind : Complete Main
Default : No
Forced : No
Original source medium : Blu-ray

Audio #7
ID : 8
Format : AAC LC
Format/Info : Advanced Audio Codec Low Complexity
Codec ID : A_AAC-2
Duration : 24 min 13 s
Bit rate : 160 kb/s
Channel(s) : 2 channels
Channel layout : L R
Sampling rate : 48.0 kHz
Frame rate : 46.875 FPS (1024 SPF)
Compression mode : Lossy
Stream size : 27.7 MiB (1%)
Language : English
Default : Yes
Forced : No

Text #1
ID : 9
ID in the original source m : 4608 (0x1200)
Format : PGS
Muxing mode : zlib
Codec ID : S_HDMV/PGS
Codec ID/Info : Picture based subtitle format used on BDs/HD-DVDs
Duration : 23 min 49 s
Bit rate : 16.9 kb/s
Count of elements : 282
Stream size : 2.88 MiB (0%)
Language : English
Default : No
Forced : No
Original source medium : Blu-ray

Text #2
ID : 10
ID in the original source m : 4609 (0x1201)
Format : PGS
Muxing mode : zlib
Codec ID : S_HDMV/PGS
Codec ID/Info : Picture based subtitle format used on BDs/HD-DVDs
Duration : 1 min 15 s
Bit rate : 43.0 kb/s
Count of elements : 32
Stream size : 397 KiB (0%)
Language : English
Default : No
Forced : No
Original source medium : Blu-ray

Text #3
ID : 11
Format : ASS
Codec ID : S_TEXT/ASS
Codec ID/Info : Advanced Sub Station Alpha
Duration : 23 min 50 s
Bit rate : 53 b/s
Count of elements : 185
Compression mode : Lossless
Stream size : 9.37 KiB (0%)
Language : Portuguese
Default : Yes
Forced : No

Menu
00:00:00.000 : en:Chapter 01
00:01:50.610 : en:Chapter 02
00:12:37.715 : en:Chapter 03
00:22:34.770 : en:Chapter 04


Visite nosso fórum / Siga-nos no Twitter / BaixarTurbo.com

Dragon ball Z Bluray 1080p Bluray Remux 4K UHD 2160p HDR

Entrar

Não tem uma conta? Cadastre-se
Inscrever-se

Já tem uma conta? Entrar