Digimon

Sete crianças estão num acampamento de verão quando, inesperadamente, uns estranhos aparelhos caem do céu – os digivices (digital devices ou dispositivos digitais) e elas são transportadas para o Mundo Digital (Digimundo), mais propriamente para uma ilha conhecida como Ilha Arquivo. Cada uma das crianças conhece um digimon que se torna seu companheiro. Para tentarem regressar a casa, as crianças percebem que existem digimons bons e digimons maus. Eles iniciam uma luta contra os inimigos que pretendem dominar o Mundo Digital com a força da Escuridão, contando com a ajuda dos seus digimons que, com o passar do tempo, se tornam mais poderosos e conseguem se converter em criaturas maiores e mais fortes.

Digimon

Título Original: Digimon Adventure
Qualidade: Remux 1080p
Áudio: Dual Áudio
Legenda: Embutida (selecionável)
Anime completo – Temporada 01(1999) – Temporada 02(2000)
 
Download Remux 1080p
 

Digimon Bluray 1080p Bluray Remux 4K UHD 2160p HDR

Spoiler

General
Unique ID : 250689077018571326392339450808264760254 (0xBC98F5C39D3EF6670FF80B15A9371BBE)
Complete name : D:\1999 – Digimon Adventure – [REMUX]\Digimon Adventure – 1º Temporada – EP. 01 – [REMUX].mkv
Format : Matroska
Format version : Version 4
File size : 5.29 GiB
Duration : 26 min 5 s
Overall bit rate mode : Variable
Overall bit rate : 29.0 Mb/s
Encoded date : UTC 2021-11-01 21:05:00
Writing application : mkvmerge v61.0.0 (‘So’) 64-bit
Writing library : libebml v1.4.2 + libmatroska v1.6.4
Attachments : 1stroke.TTF / HITROAD.TTF

Video
ID : 1
Format : AVC
Format/Info : Advanced Video Codec
Format profile : High@L4.1
Format settings : CABAC / 4 Ref Frames
Format settings, CABAC : Yes
Format settings, Reference : 4 frames
Codec ID : V_MPEG4/ISO/AVC
Duration : 23 min 6 s
Bit rate mode : Variable
Bit rate : 31.0 Mb/s
Maximum bit rate : 39.0 Mb/s
Width : 1 920 pixels
Height : 1 080 pixels
Display aspect ratio : 16:9
Frame rate mode : Constant
Frame rate : 29.970 (30000/1001) FPS
Color space : YUV
Chroma subsampling : 4:2:0
Bit depth : 8 bits
Scan type : MBAFF
Scan type, store method : Interleaved fields
Scan order : Top Field First
Bits/(Pixel*Frame) : 0.498
Stream size : 5.00 GiB (95%)
Language : Japanese
Default : Yes
Forced : No

Audio #1
ID : 2
Format : AC-3
Format/Info : Audio Coding 3
Commercial name : Dolby Digital
Codec ID : A_AC3
Duration : 23 min 6 s
Bit rate mode : Constant
Bit rate : 256 kb/s
Channel(s) : 2 channels
Channel layout : L R
Sampling rate : 48.0 kHz
Frame rate : 31.250 FPS (1536 SPF)
Compression mode : Lossy
Stream size : 42.3 MiB (1%)
Title : Áudio PT – [AC3]
Language : Portuguese
Service kind : Complete Main
Default : Yes
Forced : No

Audio #2
ID : 3
Format : PCM
Format settings : Little / Signed
Codec ID : A_PCM/INT/LIT
Duration : 23 min 6 s
Bit rate mode : Constant
Bit rate : 1 536 kb/s
Channel(s) : 2 channels
Sampling rate : 48.0 kHz
Frame rate : 200.000 FPS (240 SPF)
Bit depth : 16 bits
Stream size : 254 MiB (5%)
Title : Áudio JPN – [PCM]
Language : Japanese
Default : No
Forced : No

Text
ID : 4
Format : ASS
Codec ID : S_TEXT/ASS
Codec ID/Info : Advanced Sub Station Alpha
Duration : 25 min 50 s
Bit rate : 177 b/s
Frame rate : 0.181 FPS
Count of elements : 280
Compression mode : Lossless
Stream size : 33.7 KiB (0%)
Title : Legenda PT – [Kanshin]
Language : Portuguese
Default : Yes
Forced : No


Visite nosso fórum / Siga-nos no Twitter / BaixarTurbo.com

Digimon Bluray 1080p Bluray Remux 4K UHD 2160p HDR

Comentários

Entrar

Não tem uma conta? Cadastre-se
Inscrever-se

Já tem uma conta? Entrar