Claymore

Claymore se passa numa época em que a Terra está repleta de Youmas, criaturas demoníacas que se alimentam das vísceras humanas. Há uma “Organização” com o objetivo de exterminar essas aberrações e por um fim no medo que elas geram sobre os humanos. Para isso, cria guerreiras com potencial acima do comum, a partir da carne e sangue dos Youmas – Claymores, meio-humanas, meio-youma. Cheio de ação e muitas surpresas, o anime conta a história de Clare, uma guerreira com algumas diferenças das demais Claymores, uma eterna sede de vingança, e uma razão para lutar, o que faz esse anime incrível

Claymore

Título Original: Claymore
Qualidade: Remux
Áudio: Dual Áudio
Legenda: Embutida (selecionável)
 
Download Remux 1080p
 

Claymore Bluray 1080p Bluray Remux 4K UHD 2160p HDR

Spoiler

General
Unique ID : 194002036716220561047015684773184885614 (0x91F36EE4C7624A0F85908E84AA0D536E)
Complete name : D:\Claymore 1080p BluRay FLAC2.0 x264-Space_Heaven DUAL-Yatogam1\Claymore – 01 [BD 1080p DUAL].mkv
Format : Matroska
Format version : Version 4
File size : 1.01 GiB
Duration : 22 min 52 s
Overall bit rate mode : Variable
Overall bit rate : 6 295 kb/s
Encoded date : UTC 2021-03-26 13:07:06
Writing application : mkvmerge v8.4.0 (‘A better way to fly’) 64bit
Writing library : libebml v1.3.1 + libmatroska v1.4.2
Attachments : BAKESBR.TTF / CALIFB.TTF / CALIFI.TTF / CALIFR.TTF / HTOWERT.TTF / HTOWERTI.TTF / msuighur.ttf / Renaiss-Italic.ttf / Renaiss-Italic_0.ttf / calibri.ttf / calibrib.ttf / calibrii.ttf / calibriz.ttf / GenBkBasB.ttf / GenBkBasBI.ttf / GenBkBasI.ttf / GenBkBasR.ttf / stonehen.ttf

Video
ID : 1
Format : AVC
Format/Info : Advanced Video Codec
Format profile : High@L4.1
Format settings : CABAC / 4 Ref Frames
Format settings, CABAC : Yes
Format settings, Reference : 4 frames
Codec ID : V_MPEG4/ISO/AVC
Duration : 22 min 50 s
Bit rate : 5 375 kb/s
Width : 1 920 pixels
Height : 1 080 pixels
Display aspect ratio : 16:9
Frame rate mode : Constant
Frame rate : 29.970 (29970/1000) FPS
Original frame rate : 29.970 (30000/1001) FPS
Color space : YUV
Chroma subsampling : 4:2:0
Bit depth : 8 bits
Scan type : Progressive
Bits/(Pixel*Frame) : 0.086
Stream size : 878 MiB (85%)
Title : www.claymore.com.br
Writing library : x264 core 67 r1173_EXPERIMENTAL
Language : Japanese
Default : Yes
Forced : No
Color range : Limited
Color primaries : BT.709
Transfer characteristics : BT.709
Matrix coefficients : BT.709

Audio #1
ID : 2
Format : AAC LC
Format/Info : Advanced Audio Codec Low Complexity
Codec ID : A_AAC-2
Duration : 22 min 49 s
Bit rate : 253 kb/s
Channel(s) : 2 channels
Channel layout : L R
Sampling rate : 48.0 kHz
Frame rate : 46.875 FPS (1024 SPF)
Compression mode : Lossy
Delay relative to video : 16 ms
Stream size : 41.4 MiB (4%)
Language : Portuguese
Default : Yes
Forced : No

Audio #2
ID : 3
Format : FLAC
Format/Info : Free Lossless Audio Codec
Codec ID : A_FLAC
Duration : 22 min 51 s
Bit rate mode : Variable
Bit rate : 625 kb/s
Channel(s) : 2 channels
Channel layout : L R
Sampling rate : 48.0 kHz
Frame rate : 11.719 FPS (4096 SPF)
Bit depth : 16 bits
Compression mode : Lossless
Delay relative to video : 1 s 0 ms
Stream size : 102 MiB (10%)
Title : FLAC 2.0
Writing library : libFLAC 1.2.1 (UTC 2007-09-17)
Language : Japanese
Default : No
Forced : No

Text #1
ID : 4
Format : ASS
Codec ID : S_TEXT/ASS
Codec ID/Info : Advanced Sub Station Alpha
Duration : 21 min 43 s
Bit rate : 127 b/s
Frame rate : 0.245 FPS
Count of elements : 319
Compression mode : Lossless
Stream size : 20.2 KiB (0%)
Title : SpaceFansub
Default : No
Forced : No

Text #2
ID : 5
Format : ASS
Codec ID : S_TEXT/ASS
Codec ID/Info : Advanced Sub Station Alpha
Duration : 21 min 42 s
Bit rate : 10.1 kb/s
Frame rate : 12.236 FPS
Count of elements : 15942
Compression mode : Lossless
Stream size : 1.57 MiB (0%)
Title : Heaven Fansub
Default : No
Forced : No


Visite nosso fórum / Siga-nos no Twitter / BaixarTurbo.com

Claymore Bluray 1080p Bluray Remux 4K UHD 2160p HDR

Entrar

Não tem uma conta? Cadastre-se
Inscrever-se

Já tem uma conta? Entrar