Boku no Hero Academia

Por toda a sua vida, Izuku sonhou ser um herói — um objetivo ambicioso para qualquer um, mas especialmente desafiador para um garoto sem superpoderes. Isso mesmo: em um mundo onde 80% da população tem algum tipo de Dom especial, Izuku teve a má sorte de nascer completamente normal. Mas isso não vai impedi-lo de se matricular em uma das academias de herois mais prestigiosas do mundo.

Boku no Hero Academia

Título Original: My Hero Academia
Qualidade: Remux
Áudio: Dual Áudio
Legenda: Embutida (selecionável)
Adicionado Temporada 01 e 02
 
Download Remux 1080p Temporada 01
Download Remux 1080p Temporada 02
 

Boku no Hero Academia Bluray 1080p Bluray Remux 4K UHD 2160p HDR

Spoiler

General
Unique ID : 182553557228508640639649714888199020797 (0x89568946816BF8730709FBCC5AFEA0FD)
Complete name : D:\My hero Academia S01 BDREMUX\S01 My Hero Academia\Boku no Hero Academia Season 1 Episode 01.mkv
Format : Matroska
Format version : Version 4
File size : 4.47 GiB
Duration : 24 min 38 s
Overall bit rate mode : Variable
Overall bit rate : 26.0 Mb/s
Encoded date : UTC 2022-09-28 16:34:21
Writing application : mkvmerge v70.0.0 (‘Caught A Lite Sneeze’) 64-bit
Writing library : libebml v1.4.2 + libmatroska v1.6.4

Video
ID : 1
ID in the original source m : 4113 (0x1011)
Format : AVC
Format/Info : Advanced Video Codec
Format profile : High@L4.1
Format settings : CABAC / 4 Ref Frames
Format settings, CABAC : Yes
Format settings, Reference : 4 frames
Codec ID : V_MPEG4/ISO/AVC
Duration : 24 min 32 s
Bit rate mode : Variable
Bit rate : 22.0 Mb/s
Maximum bit rate : 39.0 Mb/s
Width : 1 920 pixels
Height : 1 080 pixels
Display aspect ratio : 16:9
Frame rate mode : Constant
Frame rate : 23.976 (24000/1001) FPS
Color space : YUV
Chroma subsampling : 4:2:0
Bit depth : 8 bits
Scan type : Progressive
Bits/(Pixel*Frame) : 0.442
Stream size : 3.77 GiB (84%)
Language : English
Default : No
Forced : No
Original source medium : Blu-ray

Audio #1
ID : 2
ID in the original source m : 4352 (0x1100)
Format : MLP FBA
Format/Info : Meridian Lossless Packing FBA
Commercial name : Dolby TrueHD
Codec ID : A_TRUEHD
Duration : 24 min 32 s
Bit rate mode : Variable
Bit rate : 2 363 kb/s
Maximum bit rate : 3 804 kb/s
Channel(s) : 6 channels
Channel layout : L R C LFE Ls Rs
Sampling rate : 48.0 kHz
Frame rate : 1 200.000 FPS (40 SPF)
Bit depth : 24 bits
Compression mode : Lossless
Stream size : 415 MiB (9%)
Title : Surround 5.1
Language : English
Default : Yes
Forced : No
Original source medium : Blu-ray

Audio #2
ID : 3
ID in the original source m : 4352 (0x1100)
Format : AC-3
Format/Info : Audio Coding 3
Commercial name : Dolby Digital
Codec ID : A_AC3
Duration : 24 min 32 s
Bit rate mode : Constant
Bit rate : 448 kb/s
Channel(s) : 6 channels
Channel layout : L R C LFE Ls Rs
Sampling rate : 48.0 kHz
Frame rate : 31.250 FPS (1536 SPF)
Compression mode : Lossy
Stream size : 78.6 MiB (2%)
Title : Surround 5.1
Language : English
Service kind : Complete Main
Default : No
Forced : No
Original source medium : Blu-ray

Audio #3
ID : 4
ID in the original source m : 4353 (0x1101)
Format : MLP FBA
Format/Info : Meridian Lossless Packing FBA
Commercial name : Dolby TrueHD
Codec ID : A_TRUEHD
Duration : 24 min 32 s
Bit rate mode : Variable
Bit rate : 850 kb/s
Maximum bit rate : 1 257 kb/s
Channel(s) : 2 channels
Channel layout : L R
Sampling rate : 48.0 kHz
Frame rate : 1 200.000 FPS (40 SPF)
Bit depth : 24 bits
Compression mode : Lossless
Stream size : 149 MiB (3%)
Title : Stereo
Language : Japanese
Default : No
Forced : No
Original source medium : Blu-ray

Audio #4
ID : 5
ID in the original source m : 4353 (0x1101)
Format : AC-3
Format/Info : Audio Coding 3
Commercial name : Dolby Digital
Codec ID : A_AC3
Duration : 24 min 32 s
Bit rate mode : Constant
Bit rate : 192 kb/s
Channel(s) : 2 channels
Channel layout : L R
Sampling rate : 48.0 kHz
Frame rate : 31.250 FPS (1536 SPF)
Compression mode : Lossy
Stream size : 33.7 MiB (1%)
Title : Stereo
Language : Japanese
Service kind : Complete Main
Default : No
Forced : No
Original source medium : Blu-ray

Audio #5
ID : 6
Format : AAC LC
Format/Info : Advanced Audio Codec Low Complexity
Codec ID : A_AAC-2
Duration : 24 min 38 s
Bit rate : 96.0 kb/s
Channel(s) : 2 channels
Channel layout : L R
Sampling rate : 44.1 kHz
Frame rate : 43.066 FPS (1024 SPF)
Compression mode : Lossy
Delay relative to video : 9 ms
Stream size : 16.9 MiB (0%)
Language : Portuguese
Default : Yes
Forced : No

Text #1
ID : 7
ID in the original source m : 4608 (0x1200)
Format : PGS
Muxing mode : zlib
Codec ID : S_HDMV/PGS
Codec ID/Info : Picture based subtitle format used on BDs/HD-DVDs
Duration : 24 min 23 s
Bit rate : 40.9 kb/s
Frame rate : 0.455 FPS
Count of elements : 666
Stream size : 7.12 MiB (0%)
Language : English
Default : No
Forced : No
Original source medium : Blu-ray

Text #2
ID : 8
ID in the original source m : 4609 (0x1201)
Format : PGS
Muxing mode : zlib
Codec ID : S_HDMV/PGS
Codec ID/Info : Picture based subtitle format used on BDs/HD-DVDs
Duration : 23 min 18 s
Bit rate : 6 145 b/s
Frame rate : 0.067 FPS
Count of elements : 94
Stream size : 1.02 MiB (0%)
Title : Signs & Songs
Language : English
Default : Yes
Forced : No
Original source medium : Blu-ray

Text #3
ID : 9
Format : ASS
Codec ID : S_TEXT/ASS
Codec ID/Info : Advanced Sub Station Alpha
Duration : 24 min 23 s
Bit rate : 108 b/s
Frame rate : 0.206 FPS
Count of elements : 301
Compression mode : Lossless
Stream size : 19.4 KiB (0%)
Language : Portuguese
Default : No
Forced : No

Text #4
ID : 10
Format : ASS
Codec ID : S_TEXT/ASS
Codec ID/Info : Advanced Sub Station Alpha
Duration : 23 min 18 s
Bit rate : 36 b/s
Frame rate : 0.069 FPS
Count of elements : 96
Compression mode : Lossless
Stream size : 6.30 KiB (0%)
Language : Portuguese
Default : No
Forced : No

Menu
00:00:00.000 : en:Chapter 01
00:01:22.999 : en:Chapter 02
00:02:53.047 : en:Chapter 03
00:10:05.021 : en:Chapter 04
00:22:31.058 : en:Chapter 05
00:24:01.064 : en:Chapter 06


Visite nosso fórum / Siga-nos no Twitter / BaixarTurbo.com

Boku no Hero Academia Bluray 1080p Bluray Remux 4K UHD 2160p HDR

Entrar

Não tem uma conta? Cadastre-se
Inscrever-se

Já tem uma conta? Entrar