Blue Dragon

Blue Dragon – Após os eventos da série Blue Dragon, Shu e Bouquet aderem a um grupo de resistência para lutar contra o exército de invasão do general Rogi. Eles encontram uma criança misteriosa, Noi, que tem o poder de reviver a sombra de Shu contra-parte Blue Dragon , e salvá-lo da perseguição do Red Dragon. Agora Shu e sua empresa têm que colocar os pés novamente em uma jornada para descobrir o propósito dos dragões, passar por seus testes e interromper as cadeias de eventos que ameaçam o destino da humanidade.

Blue Dragon

Título Original: Blue Dragon
Qualidade: WEB-DL 720p
Áudio: Dual Áudio
Legenda: Embutida (selecionável)
 
Download WEB-DL 720p
 

Blue Dragon  Bluray 1080p Bluray Remux 4K UHD 2160p HDR

Spoiler

General
Unique ID : 203529411781177790667965916470758383529 (0x991E56C044D00D658D930926968C9FA9)
Complete name : C:\Users\Giu\Downloads\Blue Dragon (Completo)\Blue Dragon – 02.mkv
Format : Matroska
Format version : Version 4
File size : 314 MiB
Duration : 24 min 20 s
Overall bit rate : 1 803 kb/s
Encoded date : UTC 2014-12-07 01:19:03
Writing application : mkvmerge v6.9.1 (‘Blue Panther’) 32bit built on Apr 18 2014 18:15:44
Writing library : libebml v1.3.0 + libmatroska v1.4.1

Video
ID : 1
Format : AVC
Format/Info : Advanced Video Codec
Format profile : [email protected]
Format settings : CABAC / 6 Ref Frames
Format settings, CABAC : Yes
Format settings, Reference : 6 frames
Codec ID : V_MPEG4/ISO/AVC
Duration : 24 min 20 s
Width : 1 280 pixels
Height : 720 pixels
Display aspect ratio : 16:9
Frame rate mode : Constant
Frame rate : 23.976 (24000/1001) FPS
Color space : YUV
Chroma subsampling : 4:2:0
Bit depth : 8 bits
Scan type : Progressive
Title : Ep. 02 – Rmz Animaniacos
Writing library : x264 core 54
Encoding settings : cabac=1 / ref=3 / deblock=1:-2:-1 / analyse=0x3:0x133 / me=umh / subme=6 / brdo=1 / mixed_ref=1 / me_range=16 / chroma_me=1 / trellis=1 / 8x8dct=1 / cqm=1 / deadzone=21,11 / chroma_qp_offset=0 / threads=2 / nr=0 / decimate=1 / mbaff=0 / bframes=2 / b_pyramid=1 / b_adapt=1 / b_bias=0 / direct=1 / wpredb=1 / bime=1 / keyint=120 / keyint_min=12 / scenecut=40(pre) / rc=crf / crf=24.0 / rceq=’blurCplx^(1-qComp)’ / qcomp=0.60 / qpmin=8 / qpmax=41 / qpstep=4 / ip_ratio=1.40 / pb_ratio=1.30
Language : Portuguese
Default : Yes
Forced : No

Audio #1
ID : 2
Format : MPEG Audio
Format version : Version 1
Format profile : Layer 3
Codec ID : A_MPEG/L3
Codec ID/Hint : MP3
Duration : 24 min 20 s
Bit rate mode : Constant
Bit rate : 128 kb/s
Channel(s) : 2 channels
Sampling rate : 44.1 kHz
Compression mode : Lossy
Delay relative to video : 13 ms
Stream size : 22.3 MiB (7%)
Title : Português
Language : Portuguese
Default : Yes
Forced : No

Audio #2
ID : 3
Format : AAC LC
Format/Info : Advanced Audio Codec Low Complexity
Codec ID : A_AAC-2
Duration : 24 min 20 s
Channel(s) : 2 channels
Channel layout : L R
Sampling rate : 48.0 kHz
Frame rate : 46.875 FPS (1024 SPF)
Compression mode : Lossy
Title : Japonês
Language : Japanese
Default : No
Forced : No

Audio #3
ID : 4
Format : MPEG Audio
Format version : Version 1
Format profile : Layer 3
Codec ID : A_MPEG/L3
Codec ID/Hint : MP3
Duration : 24 min 20 s
Bit rate mode : Constant
Bit rate : 128 kb/s
Channel(s) : 2 channels
Sampling rate : 44.1 kHz
Compression mode : Lossy
Stream size : 22.3 MiB (7%)
Title : Inglês
Language : English
Default : No
Forced : No

Text #1
ID : 5
Format : ASS
Codec ID : S_TEXT/ASS
Codec ID/Info : Advanced Sub Station Alpha
Compression mode : Lossless
Title : Português
Language : Portuguese
Default : No
Forced : No

Text #2
ID : 6
Format : ASS
Codec ID : S_TEXT/ASS
Codec ID/Info : Advanced Sub Station Alpha
Compression mode : Lossless
Title : Preview
Language : Portuguese
Default : Yes
Forced : No


Visite nosso fórum / Siga-nos no Twitter / BaixarTurbo.com

Blue Dragon  Bluray 1080p Bluray Remux 4K UHD 2160p HDR

Entrar

Não tem uma conta? Cadastre-se
Inscrever-se

Já tem uma conta? Entrar