Bleach

Ichigo Kurosaki é um garoto de 15 anos que tem uma estranha capacidade de ver, tocar e falar com espíritos de pessoas mortas. Logo que a shinigami Rukia Kuchiki toma conhecimento dos poderes de Ichigo, vai atrás dele para investigar, e acaba em uma luta com um Hollow que foi atraído pelo forte poder espiritual de Ichigo. Antes de ser derrotada pela criatura, Rukia passa seus poderes a Ichigo, o qual se torna um shinigami, e após derrotar o Hollow ingressa em uma jornada para proteger os humanos e os espíritos da ameaça dos Hollows.
Ichigo Kurosaki é um garoto de 15 anos que tem uma estranha capacidade de ver, tocar e falar com espíritos de pessoas mortas. Logo que a shinigami Rukia Kuchiki toma conhecimento dos poderes de Ichigo, vai atrás dele para investigar, e acaba em uma luta com um Hollow que foi atraído pelo forte poder espiritual de Ichigo. Antes de ser derrotada pela criatura, Rukia passa seus poderes a Ichigo, o qual se torna um shinigami, e após derrotar o Hollow ingressa em uma jornada para proteger os humanos e os espíritos da ameaça dos Hollows.

Bleach

Título Original: Bleach
Qualidade: WEB-DL 1080p
Áudio: Japonês
Legenda: Embutida (selecionável)
Adicionado Novo Arco – Episódio 02
 
Download WEB-DL 1080p
 

Bleach Bluray 1080p Bluray Remux 4K UHD 2160p HDR

Spoiler

General
Unique ID : 74179731843003562257262586796362421935 (0x37CE7F26925304E850F079E63187D6AF)
Complete name : D:\BLEACH.Thousand-Year.Blood.War.S01E01.THE.BLOOD.WARFARE.mkv
Format : Matroska
Format version : Version 4
File size : 1.02 GiB
Duration : 24 min 31 s
Overall bit rate mode : Variable
Overall bit rate : 5 960 kb/s
Writing application : mkvmerge v69.420 (‘Torresmo, cachaça e viola’) 64-bit
Writing library : libebml v1.4.2 + libmatroska v1.6.4

Video
ID : 1
Format : AVC
Format/Info : Advanced Video Codec
Format profile : High@L4
Format settings : CABAC / 4 Ref Frames
Format settings, CABAC : Yes
Format settings, Reference : 4 frames
Codec ID : V_MPEG4/ISO/AVC
Duration : 24 min 31 s
Bit rate mode : Variable
Bit rate : 5 832 kb/s
Maximum bit rate : 12.7 Mb/s
Width : 1 920 pixels
Height : 1 080 pixels
Display aspect ratio : 16:9
Frame rate mode : Constant
Frame rate : 23.976 (24000/1001) FPS
Color space : YUV
Chroma subsampling : 4:2:0
Bit depth : 8 bits
Scan type : Progressive
Bits/(Pixel*Frame) : 0.117
Stream size : 1 023 MiB (98%)
Default : Yes
Forced : No
Color range : Limited
Color primaries : BT.709
Transfer characteristics : BT.709
Matrix coefficients : BT.709

Audio
ID : 2
Format : AAC LC
Format/Info : Advanced Audio Codec Low Complexity
Codec ID : A_AAC-2
Duration : 24 min 31 s
Bit rate : 125 kb/s
Channel(s) : 2 channels
Channel layout : L R
Sampling rate : 48.0 kHz
Frame rate : 46.875 FPS (1024 SPF)
Compression mode : Lossy
Stream size : 22.0 MiB (2%)
Language : Japanese
Default : Yes
Forced : No

Text #1
ID : 3
Format : UTF-8
Codec ID : S_TEXT/UTF8
Codec ID/Info : UTF-8 Plain Text
Duration : 24 min 4 s
Bit rate : 63 b/s
Frame rate : 0.244 FPS
Count of elements : 353
Stream size : 11.2 KiB (0%)
Language : Portuguese
Default : No
Forced : No

Text #2
ID : 4
Format : UTF-8
Codec ID : S_TEXT/UTF8
Codec ID/Info : UTF-8 Plain Text
Duration : 24 min 1 s
Bit rate : 64 b/s
Frame rate : 0.243 FPS
Count of elements : 350
Stream size : 11.3 KiB (0%)
Language : English
Default : No
Forced : No

Text #3
ID : 5
Format : UTF-8
Codec ID : S_TEXT/UTF8
Codec ID/Info : UTF-8 Plain Text
Duration : 24 min 5 s
Bit rate : 63 b/s
Frame rate : 0.237 FPS
Count of elements : 342
Stream size : 11.3 KiB (0%)
Language : Spanish
Default : No
Forced : No


Visite nosso fórum / Siga-nos no Twitter / BaixarTurbo.com

Bleach Bluray 1080p Bluray Remux 4K UHD 2160p HDR

Entrar

Não tem uma conta? Cadastre-se
Inscrever-se

Já tem uma conta? Entrar