Avatar: A Lenda de Aang

Aang é um menino de 12 anos que descobre ser o Avatar, mestre responsável por garantir o equilíbrio entre os quatro elementos e suas respectivas nações, mantendo o planeta em paz.

Avatar: A Lenda de Aang

Título Original: Avatar: A Lenda de Aang
Qualidade: Bluray 1080p
Áudio: Dual Áudio
Legenda: Embutida (selecionável)
 
Download Bluray 1080p
 

Avatar: A Lenda de Aang Bluray 1080p Bluray Remux 4K UHD 2160p HDR

Spoiler

General
Unique ID : 202931008879581410047279178089605242553 (0x98AB1735CB680C8FA2E2209F909A1EB9)
Complete name : D:\Avatar The Last Airbender 2003-2008 S01-S03 1080p BluRay X264 DUAL\Avatar – A Lenda de Aang LIVRO 1 – Água\Avatar, A Lenda de Aang Episódio 1.mkv
Format : Matroska
Format version : Version 4
File size : 723 MiB
Duration : 23 min 40 s
Overall bit rate : 4 270 kb/s
Movie name : Avatar, A Lenda de Aang – Livro 1: Água, Episódio 1 [YusukeFLA RMZ]
Encoded date : UTC 2019-06-23 13:03:25
Writing application : mkvmerge v8.3.0 (‘Over the Horizon’) 32bit
Writing library : libebml v1.3.1 + libmatroska v1.4.2
Attachments : URW_Alcuin_T_Bold.ttf

Video
ID : 1
Format : AVC
Format/Info : Advanced Video Codec
Format profile : High 10@L5
Format settings : CABAC / 5 Ref Frames
Format settings, CABAC : Yes
Format settings, Reference : 5 frames
Codec ID : V_MPEG4/ISO/AVC
Duration : 23 min 40 s
Bit rate : 3 818 kb/s
Width : 1 440 pixels
Height : 1 080 pixels
Display aspect ratio : 4:3
Frame rate mode : Constant
Frame rate : 23.976 FPS
Color space : YUV
Chroma subsampling : 4:2:0
Bit depth : 10 bits
Scan type : Progressive
Bits/(Pixel*Frame) : 0.102
Stream size : 647 MiB (89%)
Writing library : x264 core 152 r2851M ba24899
Encoding settings : cabac=1 / ref=5 / deblock=1:1:1 / analyse=0x3:0x133 / me=umh / subme=9 / psy=1 / psy_rd=1.00:0.00 / mixed_ref=1 / me_range=16 / chroma_me=1 / trellis=1 / 8x8dct=1 / cqm=0 / deadzone=21,11 / fast_pskip=0 / chroma_qp_offset=-2 / threads=12 / lookahead_threads=3 / sliced_threads=0 / nr=0 / decimate=1 / interlaced=0 / bluray_compat=0 / constrained_intra=0 / bframes=10 / b_pyramid=2 / b_adapt=2 / b_bias=0 / direct=1 / weightb=1 / open_gop=0 / weightp=2 / keyint=250 / keyint_min=23 / scenecut=40 / intra_refresh=0 / rc_lookahead=20 / rc=crf / mbtree=1 / crf=17.0 / qcomp=0.60 / qpmin=0 / qpmax=81 / qpstep=4 / ip_ratio=1.40 / aq=1:1.00
Language : English
Default : Yes
Forced : No
Color range : Limited
Color primaries : BT.709
Transfer characteristics : BT.709
Matrix coefficients : BT.709

Audio #1
ID : 2
Format : AC-3
Format/Info : Audio Coding 3
Commercial name : Dolby Digital
Codec ID : A_AC3
Duration : 23 min 40 s
Bit rate mode : Constant
Bit rate : 192 kb/s
Channel(s) : 2 channels
Channel layout : L R
Sampling rate : 48.0 kHz
Frame rate : 31.250 FPS (1536 SPF)
Compression mode : Lossy
Delay relative to video : -83 ms
Stream size : 32.5 MiB (4%)
Title : Português-BR (Remasterizado por YusukeFLA)
Language : Portuguese
Service kind : Complete Main
Default : Yes
Forced : No

Audio #2
ID : 3
Format : Opus
Codec ID : A_OPUS
Duration : 23 min 40 s
Bit rate : 256 kb/s
Channel(s) : 2 channels
Channel layout : L R
Sampling rate : 48.0 kHz
Frame rate : 50.000 FPS (960 SPF)
Compression mode : Lossy
Delay relative to video : -83 ms
Stream size : 43.4 MiB (6%)
Language : English
Default : No
Forced : No

Text #1
ID : 4
Format : ASS
Codec ID : S_TEXT/ASS
Codec ID/Info : Advanced Sub Station Alpha
Duration : 22 min 45 s
Bit rate : 100 b/s
Frame rate : 0.220 FPS
Count of elements : 301
Compression mode : Lossless
Stream size : 16.7 KiB (0%)
Title : Português-BR
Language : Portuguese
Default : No
Forced : No

Text #2
ID : 5
Format : UTF-8
Codec ID : S_TEXT/UTF8
Codec ID/Info : UTF-8 Plain Text
Duration : 22 min 38 s
Bit rate : 56 b/s
Frame rate : 0.232 FPS
Count of elements : 315
Stream size : 9.36 KiB (0%)
Language : English
Default : No
Forced : No

Menu
00:00:00.000 : en:00:00:00.000
00:06:50.910 : en:00:06:50.910
00:11:53.922 : en:00:11:53.922
00:17:19.497 : en:00:17:19.497
00:22:52.955 : en:00:22:52.955


Visite nosso fórum / Siga-nos no Twitter / BaixarTurbo.com

Avatar: A Lenda de Aang Bluray 1080p Bluray Remux 4K UHD 2160p HDR

Entrar

Não tem uma conta? Cadastre-se
Inscrever-se

Já tem uma conta? Entrar