Ataque dos Titãs

Titãs estão quase exterminando a raça humana. Porém alguns estão dispostos a formar um exército de ataque aos seres assassinos. O jovem Eren, após ver sua mãe ser devorada por um titã, decide que não deixará nenhum deles vivo e buscará sua vingança completa.

Ataque dos Titãs

Título Original: Attack on Titan
Qualidade: Remux 1080p
Áudio: Dual Áudio
Legenda: Embutida (selecionável)
Adicionado Temporada 01
 
Download Remux 1080p
 

Ataque dos Titãs Bluray 1080p Bluray Remux 4K UHD 2160p HDR

Spoiler

General
Unique ID : 97620774558188413838892697974869237327 (0x497113C961AF4FCE6E23FF2B99429E4F)
Complete name : D:\Attack.on.Titan.S01.1080p.TrueHD.5.1.AVC.REMUX-Vanilla\pronto pra lançar\Attack On Titan – S01E09.mkv
Format : Matroska
Format version : Version 4
File size : 4.27 GiB
Duration : 26 min 35 s
Overall bit rate mode : Variable
Overall bit rate : 23.0 Mb/s
Encoded date : UTC 2022-10-05 22:32:39
Writing application : mkvmerge v70.0.0 (‘Caught A Lite Sneeze’) 64-bit
Writing library : libebml v1.4.2 + libmatroska v1.6.4

Video
ID : 1
Format : AVC
Format/Info : Advanced Video Codec
Format profile : High@L4.1
Format settings : CABAC / 4 Ref Frames
Format settings, CABAC : Yes
Format settings, Reference : 4 frames
Codec ID : V_MPEG4/ISO/AVC
Duration : 24 min 8 s
Bit rate mode : Variable
Bit rate : 22.0 Mb/s
Maximum bit rate : 39.0 Mb/s
Width : 1 920 pixels
Height : 1 080 pixels
Display aspect ratio : 16:9
Frame rate mode : Constant
Frame rate : 23.976 (24000/1001) FPS
Color space : YUV
Chroma subsampling : 4:2:0
Bit depth : 8 bits
Scan type : Progressive
Bits/(Pixel*Frame) : 0.442
Stream size : 3.71 GiB (87%)
Default : Yes
Forced : No

Audio #1
ID : 2
Format : AAC LC
Format/Info : Advanced Audio Codec Low Complexity
Codec ID : A_AAC-2
Duration : 24 min 11 s
Bit rate : 253 kb/s
Channel(s) : 2 channels
Channel layout : L R
Sampling rate : 48.0 kHz
Frame rate : 46.875 FPS (1024 SPF)
Compression mode : Lossy
Delay relative to video : 18 ms
Stream size : 43.8 MiB (1%)
Language : Portuguese
Default : Yes
Forced : No

Audio #2
ID : 3
Format : MLP FBA
Format/Info : Meridian Lossless Packing FBA
Commercial name : Dolby TrueHD
Codec ID : A_TRUEHD
Duration : 24 min 8 s
Bit rate mode : Variable
Bit rate : 2 206 kb/s
Maximum bit rate : 3 738 kb/s
Channel(s) : 6 channels
Channel layout : L R C LFE Ls Rs
Sampling rate : 48.0 kHz
Frame rate : 1 200.000 FPS (40 SPF)
Compression mode : Lossless
Stream size : 381 MiB (9%)
Language : English
Default : No
Forced : No

Audio #3
ID : 4
Format : MLP FBA
Format/Info : Meridian Lossless Packing FBA
Commercial name : Dolby TrueHD
Codec ID : A_TRUEHD
Duration : 24 min 8 s
Bit rate mode : Variable
Bit rate : 765 kb/s
Maximum bit rate : 1 281 kb/s
Channel(s) : 2 channels
Channel layout : L R
Sampling rate : 48.0 kHz
Frame rate : 1 200.000 FPS (40 SPF)
Compression mode : Lossless
Stream size : 132 MiB (3%)
Language : Japanese
Default : No
Forced : No

Text #1
ID : 5
Format : PGS
Muxing mode : zlib
Codec ID : S_HDMV/PGS
Codec ID/Info : Picture based subtitle format used on BDs/HD-DVDs
Duration : 24 min 5 s
Bit rate : 36.4 kb/s
Frame rate : 0.426 FPS
Count of elements : 616
Stream size : 6.27 MiB (0%)
Language : Armenian
Default : Yes
Forced : No

Text #2
ID : 6
Format : PGS
Muxing mode : zlib
Codec ID : S_HDMV/PGS
Codec ID/Info : Picture based subtitle format used on BDs/HD-DVDs
Duration : 22 min 58 s
Bit rate : 3 741 b/s
Frame rate : 0.032 FPS
Count of elements : 44
Stream size : 630 KiB (0%)
Language : Armenian
Default : No
Forced : No

Text #3
ID : 7
Format : ASS
Codec ID : S_TEXT/ASS
Codec ID/Info : Advanced Sub Station Alpha
Duration : 26 min 34 s
Bit rate : 75 b/s
Frame rate : 0.167 FPS
Count of elements : 267
Compression mode : Lossless
Stream size : 14.8 KiB (0%)
Language : Portuguese
Default : No
Forced : No


Visite nosso fórum / Siga-nos no Twitter / BaixarTurbo.com

Ataque dos Titãs Bluray 1080p Bluray Remux 4K UHD 2160p HDR

Entrar

Não tem uma conta? Cadastre-se
Inscrever-se

Já tem uma conta? Entrar