90 Dias Para Casar Completo

Com um único visto de 90 dias, K-1, 4 pessoas viajam para os EUA para conhecer seus noivos estrangeiros pela primeira vez. Os casais devem casar antes que os vistos expirem ou os prometidos devem retornar ao país de origem.

90 dias para casar

Título Original: 90 Day Fiancé: Before the 90 Days
Qualidade: WEB-DL 1080p
Áudio: Dual Áudio
Legenda: Embutida (selecionável)
 
Download WEB-DL 1080p
 

90 dias para casar Bluray 1080p Bluray Remux 4K UHD 2160p HDR

Spoiler

General
Complete name : C:\Users\Giu\Videos\[S06.E05] 90 Dias para Casar – Não Era o que Eu Pensava.mp4
Format : MPEG-4
Format profile : Base Media
Codec ID : isom (isom/iso2/avc1/mp41)
File size : 6.30 GiB
Duration : 1 h 28 min
Overall bit rate : 10.2 Mb/s
Movie name : Não Era o que Eu Pensava
Album : 90 Dias para Casar
Track name/Position : 5
Track name/Total : 6
Writing application : Lavf58.33.100
Comment : Jonathan e Fernanda continuam brigando. Colt faz uma surpresa para Larissa. Kalani e Asuelu se mudam para Utah. Leida questiona sua vinda para os EUA. Olga tem complicações durante o parto.

Video
ID : 1
Format : AVC
Format/Info : Advanced Video Codec
Format profile : Baseline@L4
Format settings : 1 Ref Frames
Format settings, CABAC : No
Format settings, Reference : 1 frame
Codec ID : avc1
Codec ID/Info : Advanced Video Coding
Duration : 1 h 28 min
Bit rate : 9 848 kb/s
Width : 1 920 pixels
Height : 1 080 pixels
Display aspect ratio : 16:9
Frame rate mode : Constant
Frame rate : 30.000 FPS
Color space : YUV
Chroma subsampling : 4:2:0
Bit depth : 8 bits
Scan type : Progressive
Bits/(Pixel*Frame) : 0.158
Stream size : 6.09 GiB (97%)
Codec configuration box : avcC

Audio #1
ID : 2
Format : AAC LC
Format/Info : Advanced Audio Codec Low Complexity
Codec ID : mp4a-40-2
Duration : 1 h 28 min
Bit rate mode : Constant
Bit rate : 128 kb/s
Channel(s) : 2 channels
Channel layout : L R
Sampling rate : 48.0 kHz
Frame rate : 46.875 FPS (1024 SPF)
Compression mode : Lossy
Stream size : 81.1 MiB (1%)
Language : English
Default : Yes
Alternate group : 1

Audio #2
ID : 3
Format : AAC LC
Format/Info : Advanced Audio Codec Low Complexity
Codec ID : mp4a-40-2
Duration : 1 h 28 min
Bit rate mode : Constant
Bit rate : 192 kb/s
Channel(s) : 2 channels
Channel layout : L R
Sampling rate : 48.0 kHz
Frame rate : 46.875 FPS (1024 SPF)
Compression mode : Lossy
Stream size : 122 MiB (2%)
Language : Portuguese
Default : Yes
Alternate group : 2


Visite nosso fórum / Siga-nos no Twitter / BaixarTurbo.com

90 dias para casar Bluray 1080p Bluray Remux 4K UHD 2160p HDR

Entrar

Não tem uma conta? Cadastre-se
Inscrever-se

Já tem uma conta? Entrar