Rede de Mentiras – UHD 2160P HDR-U – Dual Áudio

FICHA TÉCNICA

Título Original: Body of Lies
Diretor: Ridley Scott
Genero: Ação / Drama / Suspense
Ano de Lançamento: 2008
Idioma: Português/Inglês
Legenda: Embutida no RAR
Tamanho: 52.8 GB
Tempo de Duração: 128 Minutos
Resolução: 3840 x 2160
Áudio Codec: AC3 5.1 / TrueHD 5.1 + AC3 5.1
Formato: MKV
Release: Hiro360
Servidor: BRupload

Sinopse: Roger Ferris (Leonardo DiCaprio) trabalha para o serviço secreto dos Estados Unidos, realizando serviços em locais perigosos ao redor do planeta. Seu principal contato na CIA é o veterano Ed Hoffman (Russell Crowe), que costuma realizar seu serviço usando o laptop e o telefone. Hoffman está agora no encalço de um líder terrorista, que planejou a explosão de uma série de bombas. Para desmascará-lo Ferris precisará se embrenhar em um mundo pouco conhecido, onde percebe cada vez mais que a confiança é, ao mesmo tempo, perigosa e o único meio de sair vivo da situação.

banner

banner

Spoiler

General
Unique ID : 309831661787742342010292355657044281803 (0xE9176852F1B33544E37BF6E2DFDB49CB)
Complete name : D:\Body.of.Lies.UHD.2160p.HDR-U.Dual.Hiro360.mkv
Format : Matroska
Format version : Version 4
File size : 52.8 GiB
Duration : 2 h 8 min
Overall bit rate mode : Variable
Overall bit rate : 58.9 Mb/s
Movie name : BaixarBluray.net – Alta Definição é Aqui
Encoded date : UTC 2019-10-12 13:07:03
Writing application : mkvmerge v37.0.0 (‘Leave It’) 64-bit
Writing library : libebml v1.3.9 + libmatroska v1.5.2 / Lavf58.20.100

Video
ID : 1
Format : HEVC
Format/Info : High Efficiency Video Coding
HDR format : SMPTE ST 2086
Codec ID : V_MPEGH/ISO/HEVC
Duration : 2 h 8 min
Bit rate : 55.9 Mb/s
Width : 3 840 pixels
Height : 2 160 pixels
Display aspect ratio : 16:9
Frame rate mode : Constant
Frame rate : 23.976 (24000/1001) FPS
Bits/(Pixel*Frame) : 0.281
Time code of first frame : 00\:00\:00\:00
Time code source : Matroska tags
Stream size : 50.1 GiB (95%)
Title : BaixarBluray.net – Alta Definição é Aqui
Writing library : H.265 10-bit – Intel Quick Sync
Language : English
Default : Yes
Forced : No
Color range : Limited
Mastering display color primaries : BT.2020
Mastering display luminance : min: 0.0001 cd/m2, max: 10000 cd/m2
Maximum Content Light Level : 1000
Maximum Frame-Average Light Level : 400

Audio #1
ID : 2
Format : MLP FBA
Format/Info : Meridian Lossless Packing FBA
Commercial name : Dolby TrueHD
Codec ID : A_TRUEHD
Duration : 2 h 8 min
Bit rate mode : Variable
Bit rate : 1 531 kb/s
Maximum bit rate : 3 069 kb/s
Channel(s) : 6 channels
Channel layout : L R C LFE Ls Rs
Sampling rate : 48.0 kHz
Frame rate : 1 200.000 FPS (40 SPF)
Compression mode : Lossless
Stream size : 1.37 GiB (3%)
Title : Surround 5.1
Language : English
Default : Yes
Forced : No

Audio #2
ID : 3
Format : AC-3
Format/Info : Audio Coding 3
Commercial name : Dolby Digital
Codec ID : A_AC3
Duration : 2 h 8 min
Bit rate mode : Constant
Bit rate : 640 kb/s
Channel(s) : 6 channels
Channel layout : L R C LFE Ls Rs
Sampling rate : 48.0 kHz
Frame rate : 31.250 FPS (1536 SPF)
Compression mode : Lossy
Stream size : 587 MiB (1%)
Title : Surround 5.1
Language : English
Service kind : Complete Main
Default : No
Forced : No

Audio #3
ID : 4
Format : AC-3
Format/Info : Audio Coding 3
Commercial name : Dolby Digital
Codec ID : A_AC3
Duration : 2 h 8 min
Bit rate mode : Constant
Bit rate : 448 kb/s
Channel(s) : 6 channels
Channel layout : L R C LFE Ls Rs
Sampling rate : 48.0 kHz
Frame rate : 31.250 FPS (1536 SPF)
Compression mode : Lossy
Stream size : 411 MiB (1%)
Title : AC-3.5.1.448 Kbps
Language : Portuguese
Service kind : Complete Main
Default : No
Forced : Yes

Text #1
ID : 5
Format : PGS
Muxing mode : zlib
Codec ID : S_HDMV/PGS
Codec ID/Info : Picture based subtitle format used on BDs/HD-DVDs
Duration : 2 h 7 min
Bit rate : 37.5 kb/s
Count of elements : 3460
Stream size : 34.2 MiB (0%)
Language : English
Default : No
Forced : No

Text #2
ID : 6
Format : PGS
Muxing mode : zlib
Codec ID : S_HDMV/PGS
Codec ID/Info : Picture based subtitle format used on BDs/HD-DVDs
Duration : 2 h 7 min
Bit rate : 29.9 kb/s
Count of elements : 3686
Stream size : 27.3 MiB (0%)
Language : Chinese
Default : No
Forced : No

Text #3
ID : 7
Format : PGS
Muxing mode : zlib
Codec ID : S_HDMV/PGS
Codec ID/Info : Picture based subtitle format used on BDs/HD-DVDs
Duration : 2 h 7 min
Bit rate : 19.4 kb/s
Count of elements : 3126
Stream size : 17.7 MiB (0%)
Language : Korean
Default : No
Forced : No

Text #4
ID : 8
Format : PGS
Muxing mode : zlib
Codec ID : S_HDMV/PGS
Codec ID/Info : Picture based subtitle format used on BDs/HD-DVDs
Duration : 2 h 7 min
Bit rate : 17.2 kb/s
Count of elements : 3468
Stream size : 15.7 MiB (0%)
Language : Arabic
Default : No
Forced : No

Text #5
ID : 9
Format : PGS
Muxing mode : zlib
Codec ID : S_HDMV/PGS
Codec ID/Info : Picture based subtitle format used on BDs/HD-DVDs
Duration : 2 h 7 min
Bit rate : 36.6 kb/s
Count of elements : 3152
Stream size : 33.4 MiB (0%)
Language : Indonesian
Default : No
Forced : No

Text #6
ID : 10
Format : PGS
Muxing mode : zlib
Codec ID : S_HDMV/PGS
Codec ID/Info : Picture based subtitle format used on BDs/HD-DVDs
Duration : 2 h 7 min
Bit rate : 29.0 kb/s
Count of elements : 3198
Stream size : 26.5 MiB (0%)
Language : Chinese
Default : No
Forced : No

Text #7
ID : 11
Format : PGS
Muxing mode : zlib
Codec ID : S_HDMV/PGS
Codec ID/Info : Picture based subtitle format used on BDs/HD-DVDs
Duration : 2 h 7 min
Bit rate : 29.3 kb/s
Count of elements : 3244
Stream size : 26.8 MiB (0%)
Language : Estonian
Default : No
Forced : No

Text #8
ID : 12
Format : PGS
Muxing mode : zlib
Codec ID : S_HDMV/PGS
Codec ID/Info : Picture based subtitle format used on BDs/HD-DVDs
Duration : 2 h 7 min
Bit rate : 34.4 kb/s
Count of elements : 3252
Stream size : 31.4 MiB (0%)
Language : Greek
Default : No
Forced : No

Text #9
ID : 13
Format : PGS
Muxing mode : zlib
Codec ID : S_HDMV/PGS
Codec ID/Info : Picture based subtitle format used on BDs/HD-DVDs
Duration : 2 h 7 min
Bit rate : 25.1 kb/s
Count of elements : 3134
Stream size : 22.9 MiB (0%)
Language : Hebrew
Default : No
Forced : No

Text #10
ID : 14
Format : PGS
Muxing mode : zlib
Codec ID : S_HDMV/PGS
Codec ID/Info : Picture based subtitle format used on BDs/HD-DVDs
Duration : 2 h 7 min
Bit rate : 27.5 kb/s
Count of elements : 3242
Stream size : 25.1 MiB (0%)
Language : Latvian
Default : No
Forced : No

Text #11
ID : 15
Format : PGS
Muxing mode : zlib
Codec ID : S_HDMV/PGS
Codec ID/Info : Picture based subtitle format used on BDs/HD-DVDs
Duration : 2 h 7 min
Bit rate : 32.6 kb/s
Count of elements : 3228
Stream size : 29.8 MiB (0%)
Language : Lithuanian
Default : No
Forced : No

Text #12
ID : 16
Format : PGS
Muxing mode : zlib
Codec ID : S_HDMV/PGS
Codec ID/Info : Picture based subtitle format used on BDs/HD-DVDs
Duration : 2 h 7 min
Bit rate : 31.4 kb/s
Count of elements : 3246
Stream size : 28.6 MiB (0%)
Language : Polish
Default : No
Forced : No

Text #13
ID : 17
Format : PGS
Muxing mode : zlib
Codec ID : S_HDMV/PGS
Codec ID/Info : Picture based subtitle format used on BDs/HD-DVDs
Duration : 2 h 7 min
Bit rate : 34.7 kb/s
Count of elements : 3314
Stream size : 31.7 MiB (0%)
Language : Portuguese
Default : No
Forced : No

Text #14
ID : 18
Format : PGS
Muxing mode : zlib
Codec ID : S_HDMV/PGS
Codec ID/Info : Picture based subtitle format used on BDs/HD-DVDs
Duration : 2 h 7 min
Bit rate : 35.4 kb/s
Count of elements : 3250
Stream size : 32.3 MiB (0%)
Language : Russian
Default : No
Forced : No

Text #15
ID : 19
Format : PGS
Muxing mode : zlib
Codec ID : S_HDMV/PGS
Codec ID/Info : Picture based subtitle format used on BDs/HD-DVDs
Duration : 2 h 7 min
Bit rate : 30.9 kb/s
Count of elements : 3158
Stream size : 28.2 MiB (0%)
Language : Thai
Default : No
Forced : No

Text #16
ID : 20
Format : PGS
Muxing mode : zlib
Codec ID : S_HDMV/PGS
Codec ID/Info : Picture based subtitle format used on BDs/HD-DVDs
Duration : 2 h 8 min
Bit rate : 49.1 kb/s
Count of elements : 4428
Stream size : 45.0 MiB (0%)
Language : Chinese
Default : No
Forced : No

Text #17
ID : 21
Format : PGS
Muxing mode : zlib
Codec ID : S_HDMV/PGS
Codec ID/Info : Picture based subtitle format used on BDs/HD-DVDs
Duration : 2 h 8 min
Bit rate : 35.7 kb/s
Count of elements : 4014
Stream size : 32.7 MiB (0%)
Language : Korean
Default : No
Forced : No

Text #18
ID : 22
Format : PGS
Muxing mode : zlib
Codec ID : S_HDMV/PGS
Codec ID/Info : Picture based subtitle format used on BDs/HD-DVDs
Duration : 2 h 7 min
Bit rate : 2 079 b/s
Count of elements : 260
Stream size : 1.90 MiB (0%)
Language : Polish
Default : No
Forced : No

Text #19
ID : 23
Format : PGS
Muxing mode : zlib
Codec ID : S_HDMV/PGS
Codec ID/Info : Picture based subtitle format used on BDs/HD-DVDs
Duration : 2 h 7 min
Bit rate : 2 253 b/s
Count of elements : 268
Stream size : 2.06 MiB (0%)
Language : Russian
Default : No
Forced : No

Text #20
ID : 24
Format : PGS
Muxing mode : zlib
Codec ID : S_HDMV/PGS
Codec ID/Info : Picture based subtitle format used on BDs/HD-DVDs
Duration : 2 h 7 min
Bit rate : 1 958 b/s
Count of elements : 258
Stream size : 1.79 MiB (0%)
Language : Thai
Default : No
Forced : No

Text #21
ID : 25
Format : PGS
Muxing mode : zlib
Codec ID : S_HDMV/PGS
Codec ID/Info : Picture based subtitle format used on BDs/HD-DVDs
Duration : 2 h 7 min
Bit rate : 2 224 b/s
Count of elements : 274
Stream size : 2.03 MiB (0%)
Language : Ukrainian
Default : No
Forced : No

Text #22
ID : 26
Format : UTF-8
Codec ID : S_TEXT/UTF8
Codec ID/Info : UTF-8 Plain Text
Duration : 2 h 1 min
Bit rate : 75 b/s
Count of elements : 1689
Stream size : 66.7 KiB (0%)
Title : Legenda PT-BR
Language : Portuguese
Default : Yes
Forced : No

bannerLeonardo DiCaprio
Russell Crowe
Mark Strong
Golshifteh Farahani

UHD 2160P HDR-U

banner

ASSISTA SEUS FILMES EM 4K SEMPRE PELO HD EXTERNO USB 3.0. CASO QUEIRA ASSISTIR PELO PC, UTILIZE O MEDIA PLAYER CLASSIC + MADVR, NUNCA EXECUTE PELO VLC PLAYER.

Updated: 15 de outubro de 2019 — 11:05

2 Comments

Add a Comment
  1. Boa tarde! Está sem os Links esse filme

    1. Bom dia, links atualizados.

Deixe uma resposta

O seu endereço de e-mail não será publicado. Campos obrigatórios são marcados com *

Baixar Bluray © 2019 Frontier Theme