O Homem de Aço – UHD 2160P HDR-U – Dual Áudio

FICHA TÉCNICA

Título Original: Man of Steel
Diretor: Zack Snyder
Genero: Ação / Aventura / Ficção
Ano de Lançamento: 2013
Idioma: Português/Inglês
Legenda: Embutida PGS (selecionável)
Tamanho: 66.8 GB
Tempo de Duração: 143 Minutos
Resolução: 3840 x 2160
Áudio Codec: AC3 5.1 / TrueHD 5.1 + AC3 5.1
Formato: MKV
Release: Hiro360
Servidor: BRupload

Sinopse:

Primeiro filme da coleção Liga da Justiça

Nascido em Krypton, o pequeno Kal-El viveu pouco tempo em seu planeta natal. Percebendo que o planeta estava prestes a entrar em colapso, seu pai o envia ainda bebê em uma nave espacial, rumo ao planeta Terra. Contrariado com tal atitude, o General Zod tenta impedir a iniciativa e acaba preso. Já em seu novo lar, a criança foi criada por Jonathan e Martha Kent, que passaram a chamá-lo de Clark. Já adulto, Clark (Henry Cavill) se vê obrigado a buscar um certo isolamento porque não consegue resistir aos salvamentos das pessoas e sempre precisa sumir do mapa para não criar problemas para seus pais. Mas o terrível Zod conseguiu se libertar e descobriu seu paradeiro. Agora, a humanidade corre perigo e talvez tenha chegado a hora das pessoas conhecerem aqueles que passarão a chama de o Super-Homem.

banner

banner

Spoiler

Video
ID : 1
Format : HEVC
Format/Info : High Efficiency Video Coding
HDR format : SMPTE ST 2086
Codec ID : V_MPEGH/ISO/HEVC
Duration : 2 h 22 min
Bit rate : 60.3 Mb/s
Width : 3 840 pixels
Height : 2 160 pixels
Display aspect ratio : 16:9
Frame rate mode : Constant
Frame rate : 23.976 (24000/1001) FPS
Color space : YUV
Bits/(Pixel*Frame) : 0.303
Stream size : 60.2 GiB (90%)
Title : BaixarBluray.net – Alta Definição é Aqui
Default : Yes
Forced : No
Color primaries : BT.2020
Transfer characteristics : PQ
Matrix coefficients : BT.2020 non-constant

Audio #1
ID : 2
Format : MLP FBA 16-ch
Format/Info : Meridian Lossless Packing FBA with 16-channel presentation
Commercial name : Dolby TrueHD with Dolby Atmos
Codec ID : A_TRUEHD
Duration : 2 h 22 min
Bit rate mode : Variable
Bit rate : 5 428 kb/s
Maximum bit rate : 8 757 kb/s
Channel(s) : 8 channels
Channel layout : L R C LFE Ls Rs Lb Rb
Sampling rate : 48.0 kHz
Frame rate : 1 200.000 FPS (40 SPF)
Compression mode : Lossless
Stream size : 5.42 GiB (8%)
Title : Surround 7.1
Language : English
Default : Yes
Forced : No
Number of dynamic objects : 11
Bed channel count : 1 channel
Bed channel configuration : LFE

Audio #2
ID : 3
Format : AC-3
Format/Info : Audio Coding 3
Commercial name : Dolby Digital
Codec ID : A_AC3
Duration : 2 h 22 min
Bit rate mode : Constant
Bit rate : 448 kb/s
Channel(s) : 6 channels
Channel layout : L R C LFE Ls Rs
Sampling rate : 48.0 kHz
Frame rate : 31.250 FPS (1536 SPF)
Compression mode : Lossy
Stream size : 458 MiB (1%)
Title : Surround 5.1
Language : English
Service kind : Complete Main
Default : No
Forced : No

Audio #3
ID : 4
Format : AC-3
Format/Info : Audio Coding 3
Commercial name : Dolby Digital
Codec ID : A_AC3
Duration : 2 h 22 min
Bit rate mode : Constant
Bit rate : 640 kb/s
Channel(s) : 6 channels
Channel layout : L R C LFE Ls Rs
Sampling rate : 48.0 kHz
Frame rate : 31.250 FPS (1536 SPF)
Compression mode : Lossy
Stream size : 655 MiB (1%)
Title : Surround 5.1
Language : Portuguese
Service kind : Complete Main
Default : No
Forced : No

Text #1
ID : 5
Format : PGS
Muxing mode : zlib
Codec ID : S_HDMV/PGS
Codec ID/Info : Picture based subtitle format used on BDs/HD-DVDs
Duration : 2 h 22 min
Bit rate : 20.8 kb/s
Count of elements : 2500
Stream size : 21.1 MiB (0%)
Language : Portuguese
Default : No
Forced : No

Text #2
ID : 6
Format : PGS
Muxing mode : zlib
Codec ID : S_HDMV/PGS
Codec ID/Info : Picture based subtitle format used on BDs/HD-DVDs
Duration : 1 h 56 min
Bit rate : 168 b/s
Count of elements : 18
Stream size : 144 KiB (0%)
Language : Portuguese
Default : No
Forced : No

bannerHenry Cavill
Amy Adams
Michael Shannon
Diane Lane

Bluray 4K UHD 2160P HDR-U

banner

Updated: 9 de outubro de 2019 — 09:43

9 Comments

Add a Comment
  1. Show!
    Que venham mais como este!!!

    Valeu!

  2. É HDR-U mesmo? Upscaling?

    1. Sim, upscale, mas não nosso, é upscale da produtora. 90% dos filmes 4k da produtora são upscale.

      1. Sim, sim, sei que maioria dos 4K originais são upcaling!
        Não fui muito claro, pensei que quando se fala de upscale aqui no site de algum conteúdo sempre se referia a upscaling de 1080p p/ 2160p!

        Então este Man of Steel é das sua versão melhorada do 2160p da produtora?

        1. Sim, exatamente pegamos o 4K da produtora e alteramos o mesmo.
          Não fazemos o upscale se não for necessário.

          1. Ótimo!
            Parabéns pelo trabalho!

            P.S.: terá Lion King 2019 melhorada?

          2. Bom dia, sim terá. Era pra ter lançado ontem mesmo, mas deu um pequeno problema no PC, vou tentar fazer hoje, mais tardar amanhã.

  3. Baixei mas o filme não tem HDR!

    Video
    ID : 1
    Format : HEVC
    Format/Info : High Efficiency Video Coding
    Codec ID : V_MPEGH/ISO/HEVC
    Duration : 2 h 22 min
    Bit rate : 60.3 Mb/s
    Width : 3 840 pixels
    Height : 2 160 pixels
    Display aspect ratio : 16:9
    Frame rate mode : Constant
    Frame rate : 23.976 (24000/1001) FPS
    Color space : YUV
    Bits/(Pixel*Frame) : 0.303
    Stream size : 60.2 GiB (90%)
    Title : BaixarBluray.net – Alta Definição é Aqui
    Default : Yes
    Forced : No
    Color primaries : BT.2020
    Transfer characteristics : PQ
    Matrix coefficients : BT.2020 non-constant

    1. Tem HDR sim meu amigo, seu media info que é ruim:

      Video
      ID : 1
      Format : HEVC
      Format/Info : High Efficiency Video Coding
      HDR format : SMPTE ST 2086
      Codec ID : V_MPEGH/ISO/HEVC
      Duration : 2 h 22 min
      Bit rate : 60.3 Mb/s
      Width : 3 840 pixels
      Height : 2 160 pixels
      Display aspect ratio : 16:9
      Frame rate mode : Constant
      Frame rate : 23.976 (24000/1001) FPS
      Color space : YUV
      Bits/(Pixel*Frame) : 0.303
      Stream size : 60.2 GiB (90%)
      Title : BaixarBluray.net – Alta Definição é Aqui
      Default : Yes
      Forced : No
      Color primaries : BT.2020
      Transfer characteristics : PQ
      Matrix coefficients : BT.2020 non-constant

Deixe uma resposta

O seu endereço de e-mail não será publicado. Campos obrigatórios são marcados com *

Baixar Bluray © 2019 Frontier Theme