O Homem de Aço [Repack] – UHD 2160P HDR-U – Dual Áudio

FICHA TÉCNICA

Título Original: Man of Steel
Diretor: Zack Snyder
Genero: Ação / Aventura / Ficção
Ano de Lançamento: 2013
Idioma: Português/Inglês
Legenda: Embutida PGS (selecionável)
Tamanho: 65.1 GB
Tempo de Duração: 143 Minutos
Resolução: 3840 x 2160
Áudio Codec: AC3 5.1 / TrueHD 5.1 + AC3 5.1
Formato: MKV
Release: Hiro360
Servidor: BRupload

Sinopse:

Primeiro filme da coleção Liga da Justiça

Nascido em Krypton, o pequeno Kal-El viveu pouco tempo em seu planeta natal. Percebendo que o planeta estava prestes a entrar em colapso, seu pai o envia ainda bebê em uma nave espacial, rumo ao planeta Terra. Contrariado com tal atitude, o General Zod tenta impedir a iniciativa e acaba preso. Já em seu novo lar, a criança foi criada por Jonathan e Martha Kent, que passaram a chamá-lo de Clark. Já adulto, Clark (Henry Cavill) se vê obrigado a buscar um certo isolamento porque não consegue resistir aos salvamentos das pessoas e sempre precisa sumir do mapa para não criar problemas para seus pais. Mas o terrível Zod conseguiu se libertar e descobriu seu paradeiro. Agora, a humanidade corre perigo e talvez tenha chegado a hora das pessoas conhecerem aqueles que passarão a chama de o Super-Homem.

banner

banner

Spoiler

Video
ID : 1
Format : HEVC
Format/Info : High Efficiency Video Coding
Format profile : Main [email protected]@High
HDR format : SMPTE ST 2086, HDR10 compatible
Codec ID : V_MPEGH/ISO/HEVC
Duration : 2 h 22 min
Bit rate : 58.6 Mb/s
Width : 3 840 pixels
Height : 2 160 pixels
Display aspect ratio : 16:9
Frame rate mode : Constant
Frame rate : 23.976 (24000/1001) FPS
Color space : YUV
Chroma subsampling : 4:2:0
Bit depth : 10 bits
Bits/(Pixel*Frame) : 0.295
Time code of first frame : 01:00:00:00
Time code source : Matroska tags
Stream size : 58.5 GiB (90%)
Title : BaixarBluray.net – Alta definição é aqui
Writing library : x265 3.1+19-c4b098f973e6:[Windows][GCC 9.1.1][64 bit] 10bit
Encoding settings : cpuid=1111039 / frame-threads=3 / numa-pools=12 / wpp / no-pmode / no-pme / no-psnr / no-ssim / log-level=2 / input-csp=1 / input-res=3840×2160 / interlace=0 / total-frames=0 / level-idc=0 / high-tier=1 / uhd-bd=0 / ref=1 / no-allow-non-conformance / repeat-headers / annexb / no-aud / no-hrd / info / hash=0 / no-temporal-layers / open-gop / min-keyint=6 / keyint=60 / gop-lookahead=0 / bframes=3 / b-adapt=0 / b-pyramid / bframe-bias=0 / rc-lookahead=5 / lookahead-slices=8 / scenecut=0 / radl=0 / no-splice / no-intra-refresh / ctu=32 / min-cu-size=16 / no-rect / no-amp / max-tu-size=32 / tu-inter-depth=1 / tu-intra-depth=1 / limit-tu=0 / rdoq-level=0 / dynamic-rd=0.00 / no-ssim-rd / no-signhide / no-tskip / nr-intra=0 / nr-inter=0 / no-constrained-intra / strong-intra-smoothing / max-merge=2 / limit-refs=0 / no-limit-modes / me=0 / subme=0 / merange=57 / temporal-mvp / no-hme / no-weightp / no-weightb / no-analyze-src-pics / deblock=0:0 / no-sao / no-sao-non-deblock / rd=2selective-sao=0 / early-skip / rskip / fast-intra / no-tskip-fast / no-cu-lossless / no-b-intra / no-splitrd-skip / rdpenalty=0 / psy-rd=2.00 / psy-rdoq=0.00 / no-rd-refine / no-lossless / cbqpoffs=0 / crqpoffs=0 / rc=cbr / bitrate=60000 / qcomp=0.60 / qpstep=4 / stats-write=0 / stats-read=0 / vbv-maxrate=60000 / vbv-bufsize=60000 / vbv-init=0.9 / ipratio=1.40 / pbratio=1.30 / aq-mode=1 / aq-strength=0.00 / cutree / zone-count=0 / no-strict-cbr / qg-size=32 / no-rc-grain / qpmax=69 / qpmin=0 / no-const-vbv / sar=1 / overscan=0 / videoformat=5 / range=0 / colorprim=9 / transfer=16 / colormatrix=9 / chromaloc=0 / display-window=0 / master-display=G(13250,34500)B(7500,3000)R(34000,16000)WP(15635,16450)L(100000000,500)cll=1000,400 / min-luma=0 / max-luma=1023 / log2-max-poc-lsb=8 / vui-timing-info / vui-hrd-info / slices=1 / no-opt-qp-pps / no-opt-ref-list-length-pps / no-multi-pass-opt-rps / scenecut-bias=0.05 / no-opt-cu-delta-qp / no-aq-motion / hdr / no-hdr-opt / no-dhdr10-opt / no-idr-recovery-sei / analysis-reuse-level=5 / scale-factor=0 / refine-intra=0 / refine-inter=0 / refine-mv=0 / refine-ctu-distortion=0 / no-limit-sao / ctu-info=0 / no-lowpass-dct / refine-analysis-type=0 / copy-pic=1 / max-ausize-factor=1.0 / no-dynamic-refine / no-single-sei / no-hevc-aq / no-svt / no-field / qp-adaptation-range=1.00
Language : English
Default : Yes
Forced : No
Color range : Limited
Color primaries : BT.2020
Transfer characteristics : PQ
Matrix coefficients : BT.2020 non-constant
Mastering display color primaries : Display P3
Mastering display luminance : min: 0.0500 cd/m2, max: 10000 cd/m2
Maximum Content Light Level : 1000 cd/m2
Maximum Frame-Average Light Level : 400 cd/m2

Audio #1
ID : 2
Format : AC-3
Format/Info : Audio Coding 3
Commercial name : Dolby Digital
Codec ID : A_AC3
Duration : 2 h 22 min
Bit rate mode : Constant
Bit rate : 640 kb/s
Channel(s) : 6 channels
Channel layout : L R C LFE Ls Rs
Sampling rate : 48.0 kHz
Frame rate : 31.250 FPS (1536 SPF)
Compression mode : Lossy
Stream size : 655 MiB (1%)
Title : Surround 5.1
Language : Portuguese
Service kind : Complete Main
Default : Yes
Forced : No

Audio #2
ID : 3
Format : MLP FBA 16-ch
Format/Info : Meridian Lossless Packing FBA with 16-channel presentation
Commercial name : Dolby TrueHD with Dolby Atmos
Codec ID : A_TRUEHD
Duration : 2 h 22 min
Bit rate mode : Variable
Bit rate : 5 428 kb/s
Maximum bit rate : 8 757 kb/s
Channel(s) : 8 channels
Channel layout : L R C LFE Ls Rs Lb Rb
Sampling rate : 48.0 kHz
Frame rate : 1 200.000 FPS (40 SPF)
Compression mode : Lossless
Stream size : 5.42 GiB (8%)
Title : Surround 7.1
Language : English
Default : No
Forced : No
Number of dynamic objects : 11
Bed channel count : 1 channel
Bed channel configuration : LFE

Audio #3
ID : 4
Format : AC-3
Format/Info : Audio Coding 3
Commercial name : Dolby Digital
Codec ID : A_AC3
Duration : 2 h 22 min
Bit rate mode : Constant
Bit rate : 448 kb/s
Channel(s) : 6 channels
Channel layout : L R C LFE Ls Rs
Sampling rate : 48.0 kHz
Frame rate : 31.250 FPS (1536 SPF)
Compression mode : Lossy
Stream size : 458 MiB (1%)
Title : Surround 5.1
Language : English
Service kind : Complete Main
Default : No
Forced : No

Text #1
ID : 5
Format : PGS
Muxing mode : zlib
Codec ID : S_HDMV/PGS
Codec ID/Info : Picture based subtitle format used on BDs/HD-DVDs
Duration : 2 h 22 min
Bit rate : 20.8 kb/s
Count of elements : 2500
Stream size : 21.1 MiB (0%)
Language : Portuguese
Default : No
Forced : No

Text #2
ID : 6
Format : PGS
Muxing mode : zlib
Codec ID : S_HDMV/PGS
Codec ID/Info : Picture based subtitle format used on BDs/HD-DVDs
Duration : 1 h 56 min
Bit rate : 168 b/s
Count of elements : 18
Stream size : 144 KiB (0%)
Language : Portuguese
Default : No
Forced : No

bannerHenry Cavill
Amy Adams
Michael Shannon
Diane Lane

Bluray 4K UHD 2160P HDR-U

banner

Updated: 2 de novembro de 2019 — 11:56

9 Comments

Add a Comment
  1. Show!
    Que venham mais como este!!!

    Valeu!

  2. É HDR-U mesmo? Upscaling?

    1. Sim, upscale, mas não nosso, é upscale da produtora. 90% dos filmes 4k da produtora são upscale.

      1. Sim, sim, sei que maioria dos 4K originais são upcaling!
        Não fui muito claro, pensei que quando se fala de upscale aqui no site de algum conteúdo sempre se referia a upscaling de 1080p p/ 2160p!

        Então este Man of Steel é das sua versão melhorada do 2160p da produtora?

        1. Sim, exatamente pegamos o 4K da produtora e alteramos o mesmo.
          Não fazemos o upscale se não for necessário.

          1. Ótimo!
            Parabéns pelo trabalho!

            P.S.: terá Lion King 2019 melhorada?

          2. Bom dia, sim terá. Era pra ter lançado ontem mesmo, mas deu um pequeno problema no PC, vou tentar fazer hoje, mais tardar amanhã.

  3. [Repack]…
    O Que mudou referente ao outro?

    1. Algumas TV´s não reconheceu o HDR na versão anterior, então acabei fazendo um repack com este erro corrigido. Se pra vc o HDR ficou ativo, nada mudou.

Deixe uma resposta

O seu endereço de e-mail não será publicado. Campos obrigatórios são marcados com *

Baixar Bluray © 2019 Frontier Theme