Naruto Shippuden Completo

FICHA TÉCNICA

Título Original: Naruto Shippuden
Diretor: Hayato Date Masa’aki Kumagai (Episódios #261-280) Yasuaki Kurotsu (Episódios #290-295)
Genero: Ação, Luta, Aventura
Ano de Lançamento: 2007
Tipo de Áudio: Japonês
Legenda: Português
Tamanho: 102 GB
Tempo de Duração: 23 minutos
Qualidade: BD-Rip 1080p
Formato: MKV
Release: Gilgamesh
Servidor: BRupload

Sinopse: Naruto Shippuden é a continuação da primeira parte do mangá Naruto, e continua a mesma linha da história após a passagem de dois anos e meio no universo Naruto.

banner

BAIXE SEM LIMITES NA VELOCIDADE MÁXIMA: CLIQUE AQUI

bannerPersonagens de anime

Bluray 1080P

Download Naruto Shippuden [Naruto Shippuden] Bluray 1080P

Mediainfo Naruto Shippuden [Naruto Shippuden] Bluray 1080P

Spoiler

Video
Video
ID : 1
Format : HEVC
Format/Info : High Efficiency Video Coding
Format profile : [email protected]@Main
Codec ID : V_MPEGH/ISO/HEVC
Duration : 23 min 6 s
Bit rate : 1 164 kb/s
Width : 1 404 pixels
Height : 1 080 pixels
Display aspect ratio : 1.289
Original display aspect rat : 4:3
Frame rate mode : Constant
Frame rate : 29.970 (30000/1001) FPS
Color space : YUV
Chroma subsampling : 4:2:0
Bit depth : 8 bits
Bits/(Pixel*Frame) : 0.026
Stream size : 192 MiB (92%)
Default : Yes
Forced : No

Audio
ID : 2
Format : AAC LC
Format/Info : Advanced Audio Codec Low Complexity
Codec ID : A_AAC-2
Duration : 23 min 8 s
Bit rate : 90.6 kb/s
Channel(s) : 2 channels
Channel layout : L R
Sampling rate : 44.1 kHz
Frame rate : 43.066 FPS (1024 SPF)
Compression mode : Lossy
Delay relative to video : 22 ms
Stream size : 15.0 MiB (7%)
Title : Japanese Stereo
Language : Japanese
Default : Yes
Forced : No

ASSISTA SEUS FILMES EM 4K SEMPRE PELO HD EXTERNO USB 3.0. CASO QUEIRA ASSISTIR PELO PC, UTILIZE O MEDIA PLAYER CLASSIC + MADVR, NUNCA EXECUTE PELO VLC PLAYER.

Updated: 22 de janeiro de 2022 — 09:20

8 Comments

Add a Comment
  1. bom dia gilgamesh.. percebi que existem dois arquivos duplicados (part26_2 e part132_2).. do que se trata? foi um erro ou eu tenho q tirar do zip com esses arquivos também? obrigado pelo release!

  2. panddah eu upei mas deletei os arquivos já, só me explica uma coisa, você conseguiu descompactar e sobrou esses dois arquivos ou não está conseguindo descompactar, me responde ai que dependendo eu baixo tudo novamente e tento entender o que aconteceu. Eu acabei de ver a lista de downloads, aparentemente está duplicado, tenta descompactar tudo e ignora essas duas partes, se tiver algum problema me avisa aqui por favor.

  3. eu apaguei esses duplicados e foi normal hehe abraço amigo

  4. Obrigado pela série. Ta faltando a parte 136 e 137

  5. darlandb eu só baixei e upei esse aí, não tenho mais aqui, eu vou ver se eu acho, senão eu vou upar outra versão, mas vou por em arquivos maiores pra não ficar muita parte e evitar confusão de links, vou procurar aqui e desculpe pelo erro.

    1. tranquilo, vou ficar de olho no post

  6. Pessoal, não achei a versão de 720p, mas achei esse de 1080p, e o tamanho total dos arquivos ficaram menores, eu deixei arquivos de 5 gigas para não ficar dando mais problemas de partes faltantes, desculpe quem baixou e não conseguiu descompactar, eu não vou deletar as parte da minha máquina, a hora que alguém baixar e der ok eu deleto, desculpem novamente e bom download.

Deixe um comentário

Baixar Bluray © 2019 Frontier Theme