Mogli: O Menino Lobo – UHD 2160P HDR-U – Dual Áudio

FICHA TÉCNICA

Título Original: The Jungle Book
Diretor: Jon Favreau
Genero: Aventura / Família / Fantasia
Ano de Lançamento: 2016
Idioma: Português/Inglês
Legenda: Embutida PGS (selecionável)
Tamanho: 51.7 GB
Tempo de Duração: 106 Minutos
Resolução: 3840 x 2160
Áudio Codec: AC3 5.1 / DTS-HD 7.1+DTS 5.1
Formato: MKV
Release: Hiro360
Servidor: BRupload

Sinopse: Mogli (Neel Sethi) é um menino criado por uma família de lobos. Mas Mogli sente que não é mais bem-vindo na floresta quando o temido tigre Shere Khan (voz de Idris Elba), que carrega cicatrizes causadas por caçadores, promete eliminar o que ele considera uma ameaça. Forçado a abandonar o único lar que conhece, Mogli embarca em uma cativante jornada de autoconhecimento, guiado pela pantera e mentora Bagheera (voz de Ben Kingsley) e pelo alegre urso Baloo (voz de Bill Murray). Pelo caminho, Mogli encontra criaturas da selva que não são exatamente bondosas, incluindo Kaa (voz de Scarlett Johannsson), uma cobra cuja voz sedutora e olhar penetrante hipnotizam o menino-lobo, e Rei Loiue (voz de Christopher Walken), o nobre de fala mansa que tenta convencer Mogli a contar o segredo da ilusória flor vermelha mortal: o fogo.

banner

banner

Spoiler

Video
ID : 1
Format : HEVC
Format/Info : High Efficiency Video Coding
Format profile : Main [email protected]@High
HDR format : SMPTE ST 2086
Codec ID : V_MPEGH/ISO/HEVC
Duration : 1 h 45 min
Bit rate : 62.4 Mb/s
Width : 3 840 pixels
Height : 2 160 pixels
Display aspect ratio : 16:9
Frame rate mode : Constant
Frame rate : 23.976 (24000/1001) FPS
Standard : Component
Color space : YUV
Chroma subsampling : 4:2:0
Bit depth : 10 bits
Bits/(Pixel*Frame) : 0.314
Stream size : 46.1 GiB (89%)
Title : BaixarBluray.net – Alta Definição é Aqui
Default : Yes
Forced : No
Color range : Limited
Color primaries : BT.2020
Transfer characteristics : PQ
Matrix coefficients : BT.2020 non-constant
Maximum Content Light Level : 65535 cd/m2
Maximum Frame-Average Light Level : 65535 cd/m2
SEI_rbsp_stop_one_bit : Missing

Audio #1
ID : 2
Format : DTS XLL
Format/Info : Digital Theater Systems
Commercial name : DTS-HD Master Audio
Codec ID : A_DTS
Duration : 1 h 45 min
Bit rate mode : Variable
Bit rate : 5 356 kb/s
Channel(s) : 8 channels
Channel layout : C L R LFE Lb Rb Lss Rss
Sampling rate : 48.0 kHz
Frame rate : 93.750 FPS (512 SPF)
Bit depth : 24 bits
Compression mode : Lossless
Stream size : 3.96 GiB (8%)
Title : Surround 7.1
Language : English
Default : Yes
Forced : No

Audio #2
ID : 3
Format : DTS
Format/Info : Digital Theater Systems
Codec ID : A_DTS
Duration : 1 h 45 min
Bit rate mode : Constant
Bit rate : 1 509 kb/s
Channel(s) : 6 channels
Channel layout : C L R Ls Rs LFE
Sampling rate : 48.0 kHz
Frame rate : 93.750 FPS (512 SPF)
Bit depth : 24 bits
Compression mode : Lossy
Stream size : 1.12 GiB (2%)
Title : Surround 5.1
Language : English
Default : No
Forced : No

Audio #3
ID : 4
Format : AC-3
Format/Info : Audio Coding 3
Commercial name : Dolby Digital
Codec ID : A_AC3
Duration : 1 h 45 min
Bit rate mode : Constant
Bit rate : 640 kb/s
Channel(s) : 6 channels
Channel layout : L R C LFE Ls Rs
Sampling rate : 48.0 kHz
Frame rate : 31.250 FPS (1536 SPF)
Compression mode : Lossy
Stream size : 485 MiB (1%)
Title : Surround 5.1
Language : Portuguese
Service kind : Complete Main
Default : No
Forced : No

Text #1
ID : 5
Format : PGS
Muxing mode : zlib
Codec ID : S_HDMV/PGS
Codec ID/Info : Picture based subtitle format used on BDs/HD-DVDs
Duration : 1 h 34 min
Bit rate : 27.5 kb/s
Count of elements : 2214
Stream size : 18.6 MiB (0%)
Language : English
Default : No
Forced : No

Text #2
ID : 6
Format : PGS
Muxing mode : zlib
Codec ID : S_HDMV/PGS
Codec ID/Info : Picture based subtitle format used on BDs/HD-DVDs
Duration : 1 h 44 min
Bit rate : 16.5 kb/s
Count of elements : 2194
Stream size : 12.4 MiB (0%)
Language : Chinese
Default : No
Forced : No

Text #3
ID : 7
Format : PGS
Muxing mode : zlib
Codec ID : S_HDMV/PGS
Codec ID/Info : Picture based subtitle format used on BDs/HD-DVDs
Duration : 1 h 44 min
Bit rate : 12.3 kb/s
Count of elements : 2192
Stream size : 9.24 MiB (0%)
Language : Korean
Default : No
Forced : No

Text #4
ID : 8
Format : PGS
Muxing mode : zlib
Codec ID : S_HDMV/PGS
Codec ID/Info : Picture based subtitle format used on BDs/HD-DVDs
Duration : 1 h 45 min
Bit rate : 18.4 kb/s
Count of elements : 2214
Stream size : 13.8 MiB (0%)
Language : Chinese
Default : No
Forced : No

Text #5
ID : 9
Format : PGS
Muxing mode : zlib
Codec ID : S_HDMV/PGS
Codec ID/Info : Picture based subtitle format used on BDs/HD-DVDs
Duration : 1 h 44 min
Bit rate : 24.0 kb/s
Count of elements : 2214
Stream size : 18.0 MiB (0%)
Language : Portuguese
Default : No
Forced : No

Text #6
ID : 10
Format : PGS
Muxing mode : zlib
Codec ID : S_HDMV/PGS
Codec ID/Info : Picture based subtitle format used on BDs/HD-DVDs
Duration : 1 h 44 min
Bit rate : 15.4 kb/s
Count of elements : 2216
Stream size : 11.6 MiB (0%)
Language : Thai
Default : No
Forced : No

Text #7
ID : 11
Format : PGS
Muxing mode : zlib
Codec ID : S_HDMV/PGS
Codec ID/Info : Picture based subtitle format used on BDs/HD-DVDs
Duration : 1 h 44 min
Bit rate : 16.3 kb/s
Count of elements : 2224
Stream size : 12.2 MiB (0%)
Language : Chinese
Default : No
Forced : No

Text #8
ID : 12
Format : PGS
Muxing mode : zlib
Codec ID : S_HDMV/PGS
Codec ID/Info : Picture based subtitle format used on BDs/HD-DVDs
Duration : 1 h 44 min
Bit rate : 23.0 kb/s
Count of elements : 2208
Stream size : 17.2 MiB (0%)
Language : Indonesian
Default : No
Forced : No

Text #9
ID : 13
Format : PGS
Muxing mode : zlib
Codec ID : S_HDMV/PGS
Codec ID/Info : Picture based subtitle format used on BDs/HD-DVDs
Duration : 1 h 44 min
Bit rate : 25.4 kb/s
Count of elements : 2212
Stream size : 19.0 MiB (0%)
Language : Malay
Default : No
Forced : No

Text #10
ID : 14
Format : PGS
Muxing mode : zlib
Codec ID : S_HDMV/PGS
Codec ID/Info : Picture based subtitle format used on BDs/HD-DVDs
Duration : 1 h 44 min
Bit rate : 37 b/s
Count of elements : 8
Stream size : 28.7 KiB (0%)
Language : Korean
Default : No
Forced : No

Text #11
ID : 15
Format : PGS
Muxing mode : zlib
Codec ID : S_HDMV/PGS
Codec ID/Info : Picture based subtitle format used on BDs/HD-DVDs
Duration : 1 h 45 min
Bit rate : 75 b/s
Count of elements : 10
Stream size : 58.5 KiB (0%)
Language : Chinese
Default : No
Forced : No

Text #12
ID : 16
Format : PGS
Muxing mode : zlib
Codec ID : S_HDMV/PGS
Codec ID/Info : Picture based subtitle format used on BDs/HD-DVDs
Duration : 1 h 44 min
Bit rate : 116 b/s
Count of elements : 8
Stream size : 89.6 KiB (0%)
Language : Portuguese
Default : No
Forced : No

Text #13
ID : 17
Format : PGS
Muxing mode : zlib
Codec ID : S_HDMV/PGS
Codec ID/Info : Picture based subtitle format used on BDs/HD-DVDs
Duration : 1 h 44 min
Bit rate : 62 b/s
Count of elements : 8
Stream size : 47.8 KiB (0%)
Language : Thai
Default : No
Forced : No

Text #14
ID : 18
Format : PGS
Muxing mode : zlib
Codec ID : S_HDMV/PGS
Codec ID/Info : Picture based subtitle format used on BDs/HD-DVDs
Duration : 1 h 44 min
Bit rate : 49 b/s
Count of elements : 8
Stream size : 38.2 KiB (0%)
Language : Chinese
Default : No
Forced : No

bannerNeel Sethi
Bill Murray
Ben Kingsley
Idris Elba

Bluray 4K UHD 2160P HDR-U

banner

Updated: 9 de outubro de 2019 — 09:43

1 Comment

Add a Comment
  1. Boooa, vocês são 10!

Deixe uma resposta

O seu endereço de e-mail não será publicado. Campos obrigatórios são marcados com *

Baixar Bluray © 2019 Frontier Theme