MIB: Homens de Preto – Internacional – 4K UHD 2160P DolbyHDR10+ – Dual Áudio

FICHA TÉCNICA

Título Original: Men in Black: International
Diretor: F. Gary Gray
Genero: Ação / Aventura / Ficção
Ano de Lançamento: 2019
Idioma: Português/Inglês
Legenda: Embutida no rar
Tamanho: 51 GB
Tempo de Duração: 114 Minutos
Resolução: 3840 x 2160
Áudio Codec: AC3 5.1 / TrueHD 7.1 + AC3 5.1
Formato: MKV
Release: Hiro360
Servidor: BRupload

Sinopse: Por décadas a agência Homens de Preto protegeu a Terra da escória do universo, mas agora precisa lidar com a maior das ameaças: um traidor, justo quando a agência torna-se internacional. É neste contexto que Em (Tessa Thompson) tenta se tornar agente, já que teve uma experiência extraterrestre quando jovem e não teve sua memória apagada. Quem irá auxiliá-lo nesta jornada é o atrapalhado agente H (Chris Hemsworth).

banner

banner

Spoiler

Unique ID : 260527252349226485336620624476520017272 (0xC3FFB941F79E61E9DC64CF9438436D78)
Complete name : C:\Users\Hiro\Downloads\Men.In.Black.International.4K.UHD.2160p.DolbyHDR10plus.Dual.Hiro360.mkv
Format : Matroska
Format version : Version 4 / Version 2
File size : 51.3 GiB
Duration : 1 h 54 min
Overall bit rate mode : Variable
Overall bit rate : 64.0 Mb/s
Movie name : BaixarBluray.net – Alta Definição é Aqui
Encoded date : UTC 2019-09-10 23:44:30
Writing application : mkvmerge v35.0.0 (‘All The Love In The World’) 64-bit
Writing library : libebml v1.3.9 + libmatroska v1.5.2

Video
ID : 1
Format : HEVC
Format/Info : High Efficiency Video Coding
Format profile : Main [email protected]@High
Codec ID : V_MPEGH/ISO/HEVC
Duration : 1 h 54 min
Bit rate : 59.3 Mb/s
Width : 3 840 pixels
Height : 2 160 pixels
Display aspect ratio : 16:9
Frame rate mode : Constant
Frame rate : 23.976 (24000/1001) FPS
Standard : Component
Color space : YUV
Chroma subsampling : 4:2:0
Bit depth : 10 bits
Bits/(Pixel*Frame) : 0.298
Stream size : 47.6 GiB (93%)
Title : BaixarBluray.net – Alta Definição é Aqui
Default : Yes
Forced : No
Color range : Limited
Color primaries : BT.2020
Transfer characteristics : SMPTE ST 2084
Matrix coefficients : BT.2020 non-constant

Audio #1
ID : 2
Format : Atmos / TrueHD
Codec ID : A_TRUEHD
Duration : 1 h 54 min
Bit rate mode : Variable
Bit rate : 3 140 kb/s
Maximum bit rate : 3 762 kb/s
Channel(s) : Object Based / 8 channels
Channel positions : Object Based / Front: L C R, Side: L R, Back: L R, LFE
Sampling rate : / 48.0 kHz
Frame rate : 1 200.000 FPS (40 spf)
Compression mode : Lossless
Stream size : 2.52 GiB (5%)
Title : Surround 7.1
Language : English
Default : Yes
Forced : No

Audio #2
ID : 3
Format : AC-3
Format/Info : Audio Coding 3
Mode extension : CM (complete main)
Format settings, Endianness : Big
Codec ID : A_AC3
Duration : 1 h 54 min
Bit rate mode : Constant
Bit rate : 640 kb/s
Channel(s) : 6 channels
Channel positions : Front: L C R, Side: L R, LFE
Sampling rate : 48.0 kHz
Frame rate : 31.250 FPS (1536 spf)
Compression mode : Lossy
Stream size : 526 MiB (1%)
Title : Surround 5.1
Language : English
Default : No
Forced : No

Audio #3
ID : 4
Format : AC-3
Format/Info : Audio Coding 3
Mode extension : CM (complete main)
Format settings, Endianness : Big
Codec ID : A_AC3
Duration : 1 h 54 min
Bit rate mode : Constant
Bit rate : 384 kb/s
Channel(s) : 6 channels
Channel positions : Front: L C R, Side: L R, LFE
Sampling rate : 48.0 kHz
Frame rate : 31.250 FPS (1536 spf)
Compression mode : Lossy
Delay relative to video : 1 ms
Stream size : 315 MiB (1%)
Title : @RK Dolby Digital 5.1
Language : Portuguese
Default : No
Forced : No

bannerChris Hemsworth
Tessa Thompson
Rebecca Ferguson
Liam Neeson

4K UHD 2160P DolbyHDR10+

banner

Updated: 12 de setembro de 2019 — 12:54

Deixe uma resposta

O seu endereço de e-mail não será publicado. Campos obrigatórios são marcados com *

Baixar Bluray © 2019 Frontier Theme