Jack Reacher: O Último Tiro – 4K UHD 2160P DolbyHDR10+ – Dual Áudio

FICHA TÉCNICA

Título Original: Jack Reacher
Diretor: Christopher McQuarrie
Genero: Ação
Ano de Lançamento: 2012
Idioma: Português/Inglês
Legenda: Embutida PGS (selecionável)
Tamanho: 61.3 GB
Tempo de Duração: 130 Minutos
Resolução: 3840 x 2160
Áudio Codec: AC3 5.1 / DTS-HD 7.1+DTS 5.1
Formato: MKV
Release: Hiro360
Servidor: BRupload

Sinopse: Um crime brutal foi cometido contra cinco pessoas ao mesmo tempo e um atirador de elite, veterano de guerra, foi acusado pelos assassinatos sem muita chance de defesa. Durante o interrogatório, ele cita apenas o nome de Jack Reacher (Tom Cruise), um ex-combatente com inúmeras condecorações, dado como desaparecido para o governo e autoridades. Só que ele aparece do nada e resolve investigar por conta própria o tal mistério. Sua teoria é que existe uma ligação entre as mortes e o verdadeiro responsável tem outros interesses, procurando desviar a atenção. Só que Jack não desiste da verdade e tem um jeito especial de fazer a sua justiça, doa a quem doer.

banner

banner

Spoiler

Format : Matroska
Format version : Version 4
File size : 61.3 GiB
Duration : 2 h 10 min
Overall bit rate mode : Variable
Overall bit rate : 67.3 Mb/s
Movie name : BaixarBluray.net – Alta Definição é Aqui
Encoded date : UTC 2019-09-15 22:06:09
Writing application : mkvmerge v35.0.0 (‘All The Love In The World’) 64-bit
Writing library : libebml v1.3.9 + libmatroska v1.5.2

Video
ID : 1
Format : HEVC
Format/Info : High Efficiency Video Coding
Format profile : Main [email protected]@High
Codec ID : V_MPEGH/ISO/HEVC
Duration : 2 h 10 min
Bit rate : 60.9 Mb/s
Width : 3 840 pixels
Height : 2 160 pixels
Display aspect ratio : 16:9
Frame rate mode : Constant
Frame rate : 23.976 (24000/1001) FPS
Standard : Component
Color space : YUV
Chroma subsampling : 4:2:0
Bit depth : 10 bits
Bits/(Pixel*Frame) : 0.306
Stream size : 55.5 GiB (91%)
Title : BaixarBluray.net – Alta Definição é Aqui
Default : Yes
Forced : No
Color range : Limited
Color primaries : BT.2020
Transfer characteristics : PQ
Matrix coefficients : BT.2020 non-constant

Audio #1
ID : 2
Format : DTS XLL
Format/Info : Digital Theater Systems
Commercial name : DTS-HD Master Audio
Codec ID : A_DTS
Duration : 2 h 10 min
Bit rate mode : Variable
Bit rate : 4 176 kb/s
Channel(s) : 8 channels
Channel layout : C L R LFE Lb Rb Lss Rss
Sampling rate : 48.0 kHz
Frame rate : 93.750 FPS (512 SPF)
Bit depth : 24 bits
Compression mode : Lossless
Stream size : 3.80 GiB (6%)
Title : Surround 7.1
Language : English
Default : Yes
Forced : No

Audio #2
ID : 3
Format : DTS
Format/Info : Digital Theater Systems
Codec ID : A_DTS
Duration : 2 h 10 min
Bit rate mode : Constant
Bit rate : 1 509 kb/s
Channel(s) : 6 channels
Channel layout : C L R Ls Rs LFE
Sampling rate : 48.0 kHz
Frame rate : 93.750 FPS (512 SPF)
Bit depth : 24 bits
Compression mode : Lossy
Stream size : 1.37 GiB (2%)
Title : Surround 5.1
Language : English
Default : No
Forced : No

Audio #3
ID : 4
Format : AC-3
Format/Info : Audio Coding 3
Commercial name : Dolby Digital
Codec ID : A_AC3
Duration : 2 h 10 min
Bit rate mode : Constant
Bit rate : 640 kb/s
Channel(s) : 6 channels
Channel layout : L R C LFE Ls Rs
Sampling rate : 48.0 kHz
Frame rate : 31.250 FPS (1536 SPF)
Bit depth : 16 bits
Compression mode : Lossy
Stream size : 597 MiB (1%)
Title : Surround 5.1
Language : Portuguese
Service kind : Complete Main
Default : No
Forced : No

bannerTom Cruise
Rosamund Pike
Richard Jenkins
David Oyelowo

4K UHD 2160P DolbyHDR10+

banner

Updated: 18 de setembro de 2019 — 09:41

Deixe uma resposta

O seu endereço de e-mail não será publicado. Campos obrigatórios são marcados com *

Baixar Bluray © 2019 Frontier Theme