Homem-Aranha: Longe de Casa – 4K UHD 2160P DolbyHDR10+ – Dual Áudio

FICHA TÉCNICA

Título Original: Spider-Man: Far From Home
Diretor: Jon Watts
Genero: Ação / Aventura / Ficção
Ano de Lançamento: 2019
Idioma: Português/Inglês
Legenda: Embutida PGS (selecionável)
Tamanho: 53.2 GB
Tempo de Duração: 130 Minutos
Resolução: 3840 x 2160
Áudio Codec: AC3 5.1 / TrueHD 5.1 + AC3 5.1
Formato: MKV
Release: Hiro360
Servidor: BRupload

Sinopse: Peter Parker decide se juntar a seus amigos Ned, MJ e o resto da turma para uma viagem de férias na Europa. No entanto, o plano de Peter de deixar as tarefas de super-herói para trás por algumas semanas é rapidamente frustrado quando ele relutantemente concorda em ajudar Nick Fury a desvendar o mistério por trás de vários ataques de seres elementais que espalharam o caos pelo velho continente.

banner

bannerTom Holland … Peter Parker / Spider-Man
Samuel L. Jackson … Nick Fury
Zendaya … Michelle Jones
Jake Gyllenhaal … Quentin Beck / Mysterio

4K UHD 2160P DolbyHDR10+

banner

Updated: 23 de setembro de 2019 — 09:55

6 Comments

Add a Comment
  1. Está sem HDR!

    Video
    ID : 1
    Format : HEVC
    Format/Info : High Efficiency Video Coding
    Format profile : Main [email protected]@High
    Codec ID : V_MPEGH/ISO/HEVC
    Duration : 2 h 9 min
    Bit rate : 54.6 Mb/s
    Width : 3 840 pixels
    Height : 2 160 pixels
    Display aspect ratio : 16:9
    Frame rate mode : Constant
    Frame rate : 23.976 (24000/1001) FPS
    Standard : Component
    Color space : YUV
    Chroma subsampling : 4:2:0
    Bit depth : 10 bits
    Bits/(Pixel*Frame) : 0.275
    Stream size : 49.4 GiB (93%)
    Title : BaixarBluray.net – Alta Definição é Aqui
    Default : Yes
    Forced : No
    Color range : Limited
    Color primaries : BT.2020
    Transfer characteristics : PQ
    Matrix coefficients : BT.2020 non-constant

    1. Tem sim meu filho, seu Media Info nativo do Windows é que não presta.

      Video
      ID : 1
      Format : HEVC
      Format/Info : High Efficiency Video Coding
      HDR format : SMPTE ST 2086
      Format profile : Main [email protected]@High
      Codec ID : V_MPEGH/ISO/HEVC
      Duration : 2 h 9 min
      Bit rate : 54.6 Mb/s
      Width : 3 840 pixels
      Height : 2 160 pixels
      Display aspect ratio : 16:9
      Frame rate mode : Constant
      Frame rate : 23.976 (24000/1001) FPS
      Standard : Component
      Color space : YUV
      Chroma subsampling : 4:2:0
      Bit depth : 10 bits
      Bits/(Pixel*Frame) : 0.275
      Stream size : 49.4 GiB (93%)
      Title : BaixarBluray.net – Alta Definição é Aqui
      Default : Yes
      Forced : No
      Color range : Limited
      Color primaries : BT.2020
      Transfer characteristics : PQ
      Matrix coefficients : BT.2020 non-constant

      1. Só uma adição…por favor lembra de então colocar nos próximos também o HDR10 compatible.

        HDR format : SMPTE ST 2086, HDR10 compatible

        1. Eu não esqueço não, não coloco pq não quero mesmo.
          Esta informação HDR10 compatible é quando é utilizada a grade comercial do HDR, o problema é que em algumas cenas o brilho é muito alto, eu tô tentando dar um jeito de corrigir isto.

  2. Ah me desculpe…Então este tipo de HDR format : SMPTE ST 2086 não eh reconhecido pelo meu sistema básico, TV OLED LG + DENON AVR-X2400H + NVIDIA Shield + KODI!!!

    Agradeço!

    Parabenizo pelo …END GAME e John Wick 3, ESTÃO LINDOS, comparei com meus Blurays 4K originais e superou!!!

    1. Tranquilo brother. Até onde saiba toda TV HDR reconhece o SMPTE, em algumas não aparece a bandeira HDR, mas claro posso estar enganado com relação a isto.

      Entendi vc passa pelo Nvidia, vou procurar as especificações deste aparelho para ver se alguma diferença no processamento do vídeo com relação a TV sem este aparato todo.

Deixe uma resposta

O seu endereço de e-mail não será publicado. Campos obrigatórios são marcados com *

Baixar Bluray © 2019 Frontier Theme