Hannibal: A Origem do Mal – UHD 2160P HDR-U – Dual Áudio

FICHA TÉCNICA

Título Original: Hannibal Rising
Diretor: Peter Webber
Genero: Drama / Suspense
Ano de Lançamento: 2007
Idioma: Português/Inglês
Legenda: Embutida SRT (selecionável)
Tamanho: 51.6 GB
Tempo de Duração: 121 Minutos
Resolução: 3840 x 2160
Áudio Codec: AC3 5.1 / DTS 5.1
Formato: MKV
Release: Hiro360
Servidor: BRupload

Sinopse: Leste da Europa, pouco após o fim da 2ª Guerra Mundial. Hannibal Lecter (Gaspard Ulliel) assiste de perto a morte violenta de seus pais. Sem apoio, ele é obrigado a morar em um orfanato soviético, onde sua família morava anteriormente. Logo Lecter parte para Paris na tentativa de encontrar seu tio, mas é recebido pela sra. Murasaki Shikibu (Gong Li), uma viúva bela e misteriosa que lhe dá carinho e amor. Na cidade Lecter decide estudar Medicina, como forma de aumentar suas habilidades para poder fazer justiça contra os criminosos de guerra que o perseguem.

banner

banner

Spoiler

Video
ID : 1
Format : HEVC
Format/Info : High Efficiency Video Coding
HDR format : SMPTE ST 2086
Codec ID : V_MPEGH/ISO/HEVC
Duration : 2 h 1 min
Bit rate : 59.1 Mb/s
Width : 3 840 pixels
Height : 2 160 pixels
Display aspect ratio : 16:9
Frame rate mode : Constant
Frame rate : 23.976 (24000/1001) FPS
Bits/(Pixel*Frame) : 0.297
Time code of first frame : 00\:00\:00\:00
Time code source : Matroska tags
Stream size : 50.0 GiB (97%)
Title : BaixarBluray.net – Alta Definição é Aqui
Writing library : H.265 10-bit – Intel Quick Sync
Language : English
Default : Yes
Forced : No
Color range : Limited
Mastering display color primaries : BT.2020
Mastering display luminance : min: 0.0001 cd/m2, max: 10000 cd/m2
Maximum Content Light Level : 1000
Maximum Frame-Average Light Level : 400

Audio #1
ID : 2
Format : DTS
Format/Info : Digital Theater Systems
Codec ID : A_DTS
Duration : 2 h 1 min
Bit rate mode : Constant
Bit rate : 1 509 kb/s
Channel(s) : 6 channels
Channel layout : C L R Ls Rs LFE
Sampling rate : 48.0 kHz
Frame rate : 93.750 FPS (512 SPF)
Bit depth : 16 bits
Compression mode : Lossy
Stream size : 1.28 GiB (2%)
Language : English
Default : Yes
Forced : No

Audio #2
ID : 3
Format : AC-3
Format/Info : Audio Coding 3
Commercial name : Dolby Digital
Codec ID : A_AC3
Duration : 2 h 0 min
Bit rate mode : Constant
Bit rate : 448 kb/s
Channel(s) : 2 channels
Channel layout : L R
Sampling rate : 48.0 kHz
Frame rate : 31.250 FPS (1536 SPF)
Bit depth : 16 bits
Compression mode : Lossy
Delay relative to video : 1 s 0 ms
Stream size : 387 MiB (1%)
Language : Portuguese
Service kind : Complete Main
Default : No
Forced : No

Text
ID : 4
Format : UTF-8
Codec ID : S_TEXT/UTF8
Codec ID/Info : UTF-8 Plain Text
Duration : 1 h 52 min
Bit rate : 26 b/s
Count of elements : 728
Stream size : 21.4 KiB (0%)
Language : Portuguese
Default : No
Forced : No

bannerAaran Thomas
Gaspard Ulliel
Li Gong
Helena-Lia Tachovská

Bluray 4K UHD 2160P HDR-U

banner

Updated: 18 de outubro de 2019 — 11:55

Deixe uma resposta

O seu endereço de e-mail não será publicado. Campos obrigatórios são marcados com *

Baixar Bluray © 2019 Frontier Theme