Godzilla II: Rei dos Monstros – 4K UHD 2160P Remux – Dual Áudio

FICHA TÉCNICA

Título Original: Godzilla: King of the Monsters
Diretor: Michael Dougherty
Genero: Ação / Aventura / Fantasia
Ano de Lançamento: 2019
Idioma: Português/Inglês
Legenda: Embutida PGS (selecionável)
Tamanho: 56.3 GB
Tempo de Duração: 131 Minutos
Resolução: 3840 x 2160
Áudio Codec: AC3 5.1 / TrueHD 7.1 + AC3 5.1
Formato: MKV
Release: Hiro360
Servidor: BRupload

Sinopse: A agência de cripto-zoológico Monarch enfrenta uma bateria de monstros do tamanho de Deus, incluindo o poderoso Godzilla, que colide com Mothra, Rodan e seu maior inimigo, o rei Ghidorah de três cabeças.

banner

banner

Spoiler

Unique ID : 148418642818139183110866546770550193925 (0x6FA8640ECD9564213BEE9A02A43FFF05)
Format : Matroska
Format version : Version 4
File size : 56.3 GiB
Duration : 2 h 11 min
Overall bit rate mode : Variable
Overall bit rate : 61.2 Mb/s
Movie name : BaixarBluray.net – Alta Definição é Aqui
Encoded date : UTC 2019-08-18 14:40:23
Writing application : mkvmerge v35.0.0 (‘All The Love In The World’) 64-bit
Writing library : libebml v1.3.9 + libmatroska v1.5.2

Video
ID : 1
Format : HEVC
Format/Info : High Efficiency Video Coding
Format profile : Main [email protected]@High
HDR format : SMPTE ST 2094 App 4, Version 1, HDR10+ Profile B compatible
Codec ID : V_MPEGH/ISO/HEVC
Duration : 2 h 11 min
Bit rate : 56.4 Mb/s
Width : 3 840 pixels
Height : 2 160 pixels
Display aspect ratio : 16:9
Frame rate mode : Constant
Frame rate : 23.976 (24000/1001) FPS
Color space : YUV
Chroma subsampling : 4:2:0 (Type 2)
Bit depth : 10 bits
Bits/(Pixel*Frame) : 0.284
Stream size : 51.9 GiB (92%)
Title : BaixarBluray.net – Alta Definição é Aqui
Default : Yes
Forced : No
Color range : Limited
Color primaries : BT.2020
Transfer characteristics : PQ
Matrix coefficients : BT.2020 non-constant
Mastering display color primaries : Display P3
Mastering display luminance : min: 0.0050 cd/m2, max: 4000 cd/m2
Maximum Content Light Level : 1998 cd/m2
Maximum Frame-Average Light Level : 414 cd/m2

Audio #1
ID : 2
Format : MLP FBA 16-ch
Format/Info : Meridian Lossless Packing FBA with 16-channel presentation
Commercial name : Dolby TrueHD with Dolby Atmos
Codec ID : A_TRUEHD
Duration : 2 h 11 min
Bit rate mode : Variable
Bit rate : 3 797 kb/s
Maximum bit rate : 6 537 kb/s
Channel(s) : 8 channels
Channel layout : L R C LFE Ls Rs Lb Rb
Sampling rate : 48.0 kHz
Frame rate : 1 200.000 FPS (40 SPF)
Compression mode : Lossless
Stream size : 3.49 GiB (6%)
Title : Surround 7.1
Language : English
Default : Yes
Forced : No
Number of dynamic objects : 15
Bed channel count : 1 channel
Bed channel configuration : LFE

Audio #2
ID : 3
Format : AC-3
Format/Info : Audio Coding 3
Commercial name : Dolby Digital
Codec ID : A_AC3
Duration : 2 h 11 min
Bit rate mode : Constant
Bit rate : 448 kb/s
Channel(s) : 6 channels
Channel layout : L R C LFE Ls Rs
Sampling rate : 48.0 kHz
Frame rate : 31.250 FPS (1536 SPF)
Bit depth : 16 bits
Compression mode : Lossy
Stream size : 422 MiB (1%)
Title : Surround 5.1
Language : English
Service kind : Complete Main
Default : No
Forced : No

Audio #3
ID : 4
Format : AC-3
Format/Info : Audio Coding 3
Commercial name : Dolby Digital
Codec ID : A_AC3
Duration : 2 h 11 min
Bit rate mode : Constant
Bit rate : 448 kb/s
Channel(s) : 6 channels
Channel layout : L R C LFE Ls Rs
Sampling rate : 48.0 kHz
Frame rate : 31.250 FPS (1536 SPF)
Bit depth : 16 bits
Compression mode : Lossy
Stream size : 422 MiB (1%)
Title : Surround 5.1
Language : Portuguese
Service kind : Complete Main
Default : No
Forced : No

Text #1
ID : 5
Format : PGS
Muxing mode : zlib
Codec ID : S_HDMV/PGS
Codec ID/Info : Picture based subtitle format used on BDs/HD-DVDs
Duration : 2 h 10 min
Bit rate : 28.5 kb/s
Count of elements : 2782
Stream size : 26.7 MiB (0%)
Language : Portuguese
Default : No
Forced : No

Text #2
ID : 6
Format : PGS
Muxing mode : zlib
Codec ID : S_HDMV/PGS
Codec ID/Info : Picture based subtitle format used on BDs/HD-DVDs
Duration : 2 h 1 min
Bit rate : 453 b/s
Count of elements : 36
Stream size : 402 KiB (0%)
Language : Portuguese
Default : Yes
Forced : No

bannerKyle Chandler
Vera Farmiga
Millie Bobby Brown
Ken Watanabe

Bluray 4K UHD

banner

Updated: 20 de agosto de 2019 — 11:06

Deixe uma resposta

O seu endereço de e-mail não será publicado. Campos obrigatórios são marcados com *

Baixar Bluray © 2019 Frontier Theme