Godzilla – 4K UHD 2160P DolbyHDR10+ – Dual Áudio

FICHA TÉCNICA

Título Original: Godzilla
Diretor: Gareth Edwards
Genero: Ação / Aventura / Fantasia
Ano de Lançamento: 2014
Idioma: Português/Inglês
Legenda: Embutida no rar
Tamanho: 59 GB
Tempo de Duração: 123 Minutos
Resolução: 3840 x 2160
Áudio Codec: AC3 5.1 / DTS-HD 7.1
Formato: MKV
Release: Hiro360
Servidor: BRupload

Sinopse: Joe Brody (Bryan Cranston) criou o filho sozinho após a morte da esposa (Juliette Binoche) em um acidente na usina nuclear em que ambos trabalhavam, no Japão. Ele nunca aceitou a catástrofe e quinze anos depois continua remoendo o acontecido, tentando encontrar alguma explicação. Ford Brody (Aaron Taylor-Johnson), agora adulto, é soldado do exército americano e precisa lutar desesperadamente para salvar a população mundial – e em especial sua família – do gigantesco, inabalável e incrivelmente assustador monstro Godzilla.

banner

banner

Spoiler

Format : Matroska
Format version : Version 4
File size : 59.0 GiB
Duration : 2 h 3 min
Overall bit rate mode : Variable
Overall bit rate : 68.6 Mb/s
Movie name : BaixarBluray.net – Alta Definição é Aqui
Encoded date : UTC 2019-08-23 20:02:54
Writing application : mkvmerge v35.0.0 (‘All The Love In The World’) 64-bit
Writing library : libebml v1.3.9 + libmatroska v1.5.2

Video
ID : 1
Format : HEVC
Format/Info : High Efficiency Video Coding
Format profile : Main [email protected]@High
Codec ID : V_MPEGH/ISO/HEVC
Duration : 2 h 3 min
Bit rate : 62.9 Mb/s
Width : 3 840 pixels
Height : 2 160 pixels
Display aspect ratio : 16:9
Frame rate mode : Constant
Frame rate : 23.976 (24000/1001) FPS
Standard : Component
Color space : YUV
Chroma subsampling : 4:2:0
Bit depth : 10 bits
Bits/(Pixel*Frame) : 0.316
Stream size : 54.1 GiB (92%)
Title : BaixarBluray.net – Alta Definição é Aqui
Default : Yes
Forced : No
Color range : Full
Color primaries : BT.2020
Transfer characteristics : PQ
Matrix coefficients : BT.2020 non-constant

Audio #1
ID : 2
Format : AC-3
Format/Info : Audio Coding 3
Commercial name : Dolby Digital
Codec ID : A_AC3
Duration : 2 h 3 min
Bit rate mode : Constant
Bit rate : 448 kb/s
Channel(s) : 6 channels
Channel layout : L R C LFE Ls Rs
Sampling rate : 48.0 kHz
Frame rate : 31.250 FPS (1536 SPF)
Bit depth : 16 bits
Compression mode : Lossy
Stream size : 394 MiB (1%)
Language : Portuguese
Service kind : Complete Main
Default : Yes
Forced : Yes

Audio #2
ID : 3
Format : DTS XLL
Format/Info : Digital Theater Systems
Commercial name : DTS-HD Master Audio
Codec ID : A_DTS
Duration : 2 h 3 min
Bit rate mode : Variable
Bit rate : 5 272 kb/s
Channel(s) : 8 channels
Channel layout : C L R LFE Lb Rb Lss Rss
Sampling rate : 48.0 kHz
Frame rate : 93.750 FPS (512 SPF)
Bit depth : 24 bits
Compression mode : Lossless
Stream size : 4.53 GiB (8%)
Language : English
Default : No
Forced : No

bannerAaron Taylor-Johnson
CJ Adams
Ken Watanabe
Bryan Cranston

4K UHD 2160P DolbyHDR10+

banner

4K HDR Remux VS 4K HDR-U

Updated: 27 de agosto de 2019 — 09:17

5 Comments

Add a Comment
  1. Boa tarde, nossa fiz o pedido do 4k porque achei que não tinha, e acabei de encontrar.
    Muito obrigado, e deixa quieto o pedido deste filme pois já tem no site, somente o pedido do Mentalista mesmo.

  2. Puts, infelizmente esta m defeito o filme amigo.
    A imagem fica picotando do inicio ao fim do filme.
    Não sei bem se me expressei direito, testa ai pra tu ver, esta impossível e assistir.

    1. Bom saber, depois irei corrigir. Uma pergunta qual modelo e marca da sua TV?

  3. Bom dia, TV QLED UHD 4K 2019 Q70 65.
    Só que eu uso no pc, e rodo tudo pelo potplayer,mpc-hc ou CyberLink PowerDVD 20.
    Nunca usei a tv para rodar nada.

    1. Show, não perguntei por causa do problema não, é que eu preciso de uns cobaias 🙂
      Quer ser meu cobaia não: https://baixarbluray.net/4k-hdr10-dinamico/ ?

Deixe uma resposta

O seu endereço de e-mail não será publicado. Campos obrigatórios são marcados com *

Baixar Bluray © 2019 Frontier Theme