Esquadrão Suicida – Versão Extendida – UHD 2160P HDR-U – Dual Áudio

FICHA TÉCNICA

Título Original: Suicide Squad Extended
Diretor: David Ayer
Genero: Ação / Aventura / Ficção
Ano de Lançamento: 2016
Idioma: Português/Inglês
Legenda: Embutida no rar
Tamanho: 55.3 GB
Tempo de Duração: 122 Minutos
Resolução: 3840 x 2160
Áudio Codec: AC3 5.1 / TrueHD 7.1 + AC3 5.1
Formato: MKV
Release: Hiro360
Servidor: BRupload

Sinopse: Reuna um time dos super vilões mais perigosos já encarcerados, dê a eles o arsenal mais poderoso do qual o governo dispõe e os envie a uma missão para derrotar uma entidade enigmática e insuperável que a agente governamental Amanda Waller (Viola Davis) decidiu que só pode ser vencida por indivíduos desprezíveis e com nada a perder. No então, assim que o improvável time percebe que eles não foram escolhidos para vencerem, e sim para falharem inevitavelmente, será que o Esquadrão Suicida vai morrer tentando concluir a missão ou decidem que é cada um por si?

banner

banner

Spoiler

General
Unique ID : 13778780637515948935962773730036677293 (0xA5DB255DD663D64C97F400733A5FAAD)
Complete name : D:\Suicide.Squad.Extended.UHD.2160p.HDR-U.Dual.Hiro360.mkv
Format : Matroska
Format version : Version 4
File size : 55.4 GiB
Duration : 2 h 2 min
Overall bit rate mode : Variable
Overall bit rate : 64.5 Mb/s
Movie name : BaixarBluray.net – Alta Definição é Aqui
Encoded date : UTC 2019-10-11 18:06:46
Writing application : mkvmerge v37.0.0 (‘Leave It’) 64-bit
Writing library : libebml v1.3.9 + libmatroska v1.5.2 / Lavf58.20.100

Video
ID : 1
Format : HEVC
Format/Info : High Efficiency Video Coding
HDR format : SMPTE ST 2086
Codec ID : V_MPEGH/ISO/HEVC
Duration : 2 h 2 min
Bit rate : 59.6 Mb/s
Width : 3 840 pixels
Height : 2 160 pixels
Display aspect ratio : 16:9
Frame rate mode : Constant
Frame rate : 23.976 (24000/1001) FPS
Bits/(Pixel*Frame) : 0.299
Time code of first frame : 00\:00\:00\:00
Time code source : Matroska tags
Stream size : 51.1 GiB (92%)
Title : BaixarBluray.net – Alta Definição é Aqui
Writing library : H.265 10-bit – Intel Quick Sync
Language : English
Default : Yes
Forced : No
Color range : Limited
Mastering display color primaries : BT.2020
Mastering display luminance : min: 0.0001 cd/m2, max: 10000 cd/m2
Maximum Content Light Level : 1000
Maximum Frame-Average Light Level : 400

Audio #1
ID : 2
Format : MLP FBA 16-ch
Format/Info : Meridian Lossless Packing FBA with 16-channel presentation
Commercial name : Dolby TrueHD with Dolby Atmos
Codec ID : A_TRUEHD
Duration : 2 h 2 min
Bit rate mode : Variable
Bit rate : 3 800 kb/s
Maximum bit rate : 5 847 kb/s
Channel(s) : 8 channels
Channel layout : L R C LFE Ls Rs Lb Rb
Sampling rate : 48.0 kHz
Frame rate : 1 200.000 FPS (40 SPF)
Compression mode : Lossless
Stream size : 3.26 GiB (6%)
Language : English
Default : No
Forced : No
Number of dynamic objects : 11
Bed channel count : 1 channel
Bed channel configuration : LFE

Audio #2
ID : 3
Format : AC-3
Format/Info : Audio Coding 3
Commercial name : Dolby Digital
Codec ID : A_AC3
Duration : 2 h 2 min
Bit rate mode : Constant
Bit rate : 640 kb/s
Channel(s) : 6 channels
Channel layout : L R C LFE Ls Rs
Sampling rate : 48.0 kHz
Frame rate : 31.250 FPS (1536 SPF)
Compression mode : Lossy
Stream size : 563 MiB (1%)
Language : English
Service kind : Complete Main
Default : No
Forced : No

Audio #3
ID : 4
Format : AC-3
Format/Info : Audio Coding 3
Commercial name : Dolby Digital
Codec ID : A_AC3
Duration : 2 h 2 min
Bit rate mode : Constant
Bit rate : 448 kb/s
Channel(s) : 6 channels
Channel layout : L R C LFE Ls Rs
Sampling rate : 48.0 kHz
Frame rate : 31.250 FPS (1536 SPF)
Compression mode : Lossy
Stream size : 394 MiB (1%)
Language : Portuguese
Service kind : Complete Main
Default : Yes
Forced : Yes

Text #1
ID : 5
Format : UTF-8
Codec ID : S_TEXT/UTF8
Codec ID/Info : UTF-8 Plain Text
Duration : 1 h 46 min
Bit rate : 2 b/s
Count of elements : 78
Stream size : 2.14 KiB (0%)
Title : Forced
Language : Portuguese
Default : Yes
Forced : Yes

Text #2
ID : 6
Format : UTF-8
Codec ID : S_TEXT/UTF8
Codec ID/Info : UTF-8 Plain Text
Duration : 2 h 2 min
Bit rate : 46 b/s
Count of elements : 1472
Stream size : 41.3 KiB (0%)
Title : Full
Language : Portuguese
Default : No
Forced : No

bannerWill Smith
Jaime FitzSimons
Ike Barinholtz
Margot Robbie

Bluray 4K UHD 2160P HDR-U

banner

Updated: 13 de outubro de 2019 — 10:31

Deixe uma resposta

O seu endereço de e-mail não será publicado. Campos obrigatórios são marcados com *

Baixar Bluray © 2019 Frontier Theme