Dragon Ball z e super – todos os filmes

FICHA TÉCNICA

Título Original: Dragon Ball Z e Super – Todos os Filmes
Diretor: Toei Animation
Ano de Lançamento: 1989 – 2020
Tipo de Áudio: Trial Áudio
Legenda: Embutida (selecionável, Br, Eng)
Tamanho: 42,3 GB
Tempo de Duração: 45 – 90 min
Qualidade: BD-Rip 1080p – BD-Rip 720p
Formato: MKV
Release: Gilgamesh
Servidor: BRupload

Sinopse: Dragon Ball Z e Super – Todos os Filmes

O resgate de Gohan! Zona da Morte (1989), O homem mais forte do mundo (1990), A árvore do poder (1990), Goku, o Super Saiyajin – Lorde Slug (1991), Uma Vingança Para Freeza – A Vingança de Cooler, O Retorno de Cooler (1992), Super Androide 13 Batalha Extrema!! Os Três Grandes Super Saiyajins (1992), Broly – O Lendário Super Saiyajin (1993), A Galáxia em Perigo! O Surgimento de Bojack (1993), O Retorno do Guerreiro Lendário Broly (1994), O Combate Final: Bio Broly (1994), O Renascimento da Fusão (1995), O Ataque do Dragão (1995), A Batalha dos Deuses, O Renascimento de F, Dragon Ball Super – Broly

banner

BAIXE SEM LIMITES NA VELOCIDADE MÁXIMA: CLIQUE AQUI

bannerPersonagem de Animes

Bluray 1080P

Download Dragon Ball Z e Super - Todos os Filmes [Dragon Ball Z e Super - Todos os Filmes] Bluray 1080P

Mediainfo Dragon Ball Z e Super - Todos os Filmes [Dragon Ball Z e Super - Todos os Filmes] Bluray 1080P

Spoiler

Video
ID : 1
Format : AVC
Format/Info : Advanced Video Codec
Format profile : [email protected]
Format settings : CABAC / 11 Ref Frames
Format settings, CABAC : Yes
Format settings, Reference : 11 frames
Muxing mode : Header stripping
Codec ID : V_MPEG4/ISO/AVC
Duration : 1 h 16 min
Nominal bit rate : 4 268 kb/s
Width : 1 280 pixels
Height : 720 pixels
Display aspect ratio : 16:9
Frame rate mode : Constant
Frame rate : 23.976 FPS
Color space : YUV
Chroma subsampling : 4:2:0
Bit depth : 8 bits
Scan type : Progressive
Bits/(Pixel*Frame) : 0.193
Writing library : x264 core 56 svn-681
Encoding settings : cabac=1 / ref=8 / deblock=1:-3:-3 / analyse=0x3:0x133 / me=umh / fpel_cmp=sad / subme=6 / me-prepass=0 / brdo=1 / mixed_ref=1 / me_range=16 / chroma_me=1 / trellis=0 / 8x8dct=1 / cqm=2 / deadzone=21,11 / chroma_qp_offset=0 / threads=6 / nr=0 / decimate=1 / mbaff=0 / bframes=5 / b_pyramid=1 / b_adapt=1 / b_bias=0 / direct=1 / wpredb=1 / bime=1 / keyint=250 / keyint_min=25 / scenecut=40(pre) / rc=2pass / bitrate=4268 / ratetol=1.0 / rceq=’blurCplx^(1-qComp)’ / qcomp=0.60 / qpmin=10 / qpmax=51 / qpstep=4 / cplxblur=20.0 / qblur=0.5 / ip_ratio=1.40 / pb_ratio=1.30 / aq=1:0.7:15.0
Language : English
Default : Yes
Forced : No

Audio #1
ID : 2
Format : DTS
Format/Info : Digital Theater Systems
Muxing mode : Header stripping
Codec ID : A_DTS
Duration : 1 h 16 min
Bit rate mode : Constant
Bit rate : 384 kb/s
Channel(s) : 2 channels
Channel layout : L R
Sampling rate : 48.0 kHz
Frame rate : 93.750 FPS (512 SPF)
Bit depth : 16 bits
Compression mode : Lossy
Stream size : 209 MiB (8%)
Title : Japonês
Language : Japanese
Default : No
Forced : Yes

Audio #2
ID : 3
Format : DTS
Format/Info : Digital Theater Systems
Muxing mode : Header stripping
Codec ID : A_DTS
Duration : 1 h 16 min
Bit rate mode : Constant
Bit rate : 384 kb/s
Channel(s) : 2 channels
Channel layout : Lt Rt
Sampling rate : 48.0 kHz
Frame rate : 93.750 FPS (512 SPF)
Bit depth : 16 bits
Compression mode : Lossy
Stream size : 209 MiB (8%)
Title : Inglês
Language : English
Default : No
Forced : Yes

Audio #3
ID : 6
Format : AAC LC SBR
Format/Info : Advanced Audio Codec Low Complexity with Spectral Band Replication
Commercial name : HE-AAC
Format settings : Explicit
Codec ID : A_AAC-2
Duration : 1 h 16 min
Channel(s) : 2 channels
Channel layout : L R
Sampling rate : 44.1 kHz
Frame rate : 21.533 FPS (2048 SPF)
Compression mode : Lossy
Title : Português
Language : Portuguese
Default : Yes
Forced : Yes

ASSISTA SEUS FILMES EM 4K SEMPRE PELO HD EXTERNO USB 3.0. CASO QUEIRA ASSISTIR PELO PC, UTILIZE O MEDIA PLAYER CLASSIC + MADVR, NUNCA EXECUTE PELO VLC PLAYER.

Updated: 22 de janeiro de 2022 — 09:20

Deixe um comentário

Baixar Bluray © 2019 Frontier Theme