Dragon Ball Super Série

FICHA TÉCNICA

Título Original: Dragon Ball Super
Diretor: Toei Animation
Genero: Ação, Luta, Aventura
Ano de Lançamento: 2015
Tipo de Áudio: Dual Áudio(
Legenda: Embutida (selecionável, Br)
Tamanho: 74 GB
Tempo de Duração: 23 minutos
Qualidade: BD-Rip 1080p
Formato: MKV
Release: Gilgamesh
Servidor: BRupload

Sinopse: O Deus da Destruição acorda e está dedicado a destruir com os planetas, e acaba descobrindo a Terra. O guerreiro Goku pede ajuda a seus amigos para se converter no lendário Super Saiyajin e enfrentar o vilão.

banner

BAIXE SEM LIMITES NA VELOCIDADE MÁXIMA: CLIQUE AQUI

bannerPersonagens de anime

Bluray 1080P

Download Dragon Ball Super [Dragon Ball Super] Bluray 1080P

Mediainfo Dragon Ball Super [Dragon Ball Super] Bluray 1080P

Spoiler

ideo
ID : 1
Format : AVC
Format/Info : Advanced Video Codec
Format profile : [email protected]
Format settings : CABAC / 4 Ref Frames
Format settings, CABAC : Yes
Format settings, Reference : 4 frames
Codec ID : V_MPEG4/ISO/AVC
Duration : 23 min 22 s
Bit rate : 3 072 kb/s
Width : 1 920 pixels
Height : 1 080 pixels
Display aspect ratio : 16:9
Frame rate mode : Constant
Frame rate : 23.976 (24000/1001) FPS
Original frame rate : 23.976 (23976/1000) FPS
Color space : YUV
Chroma subsampling : 4:2:0
Bit depth : 8 bits
Scan type : Progressive
Bits/(Pixel*Frame) : 0.062
Stream size : 512 MiB (89%)
Title : Dragon.Ball.Super.E29.1080p.WEB-DL.H264.DUAL-RK
Writing library : x264 core 120 r2120 0c7dab9
Encoding settings : cabac=1 / ref=4 / deblock=1:1:1 / analyse=0x3:0x113 / me=umh / subme=8 / psy=1 / psy_rd=0.40:0.00 / mixed_ref=1 / me_range=16 / chroma_me=1 / trellis=1 / 8x8dct=1 / cqm=0 / deadzone=21,11 / fast_pskip=1 / chroma_qp_offset=-2 / threads=8 / sliced_threads=0 / nr=0 / decimate=1 / interlaced=0 / bluray_compat=0 / constrained_intra=0 / bframes=3 / b_pyramid=2 / b_adapt=2 / b_bias=0 / direct=3 / weightb=1 / open_gop=0 / weightp=2 / keyint=250 / keyint_min=23 / scenecut=40 / intra_refresh=0 / rc_lookahead=50 / rc=2pass / mbtree=1 / bitrate=3072 / ratetol=1.0 / qcomp=0.60 / qpmin=0 / qpmax=69 / qpstep=4 / cplxblur=20.0 / qblur=0.5 / vbv_maxrate=6144 / vbv_bufsize=15360 / nal_hrd=none / ip_ratio=1.40 / aq=1:0.60
Language : Japanese
Default : Yes
Forced : Yes

Audio #1
ID : 2
Format : AC-3
Format/Info : Audio Coding 3
Commercial name : Dolby Digital
Codec ID : A_AC3
Duration : 23 min 22 s
Bit rate mode : Constant
Bit rate : 192 kb/s
Channel(s) : 2 channels
Channel layout : L R
Sampling rate : 48.0 kHz
Frame rate : 31.250 FPS (1536 SPF)
Compression mode : Lossy
Stream size : 32.1 MiB (6%)
Title : @RK [PT-BR] Dolby Digital 2.0
Language : Portuguese
Service kind : Complete Main
Default : Yes
Forced : No

Audio #2
ID : 3
Format : AC-3
Format/Info : Audio Coding 3
Commercial name : Dolby Digital
Format settings : Dolby Surround
Codec ID : A_AC3
Duration : 23 min 22 s
Bit rate mode : Constant
Bit rate : 192 kb/s
Channel(s) : 2 channels
Channel layout : L R
Sampling rate : 48.0 kHz
Frame rate : 31.250 FPS (1536 SPF)
Compression mode : Lossy
Stream size : 32.1 MiB (6%)
Title : @RK [JPA] Dolby Digital 2.0
Language : Japanese
Service kind : Complete Main
Default : No
Forced : No

ASSISTA SEUS FILMES EM 4K SEMPRE PELO HD EXTERNO USB 3.0. CASO QUEIRA ASSISTIR PELO PC, UTILIZE O MEDIA PLAYER CLASSIC + MADVR, NUNCA EXECUTE PELO VLC PLAYER.

Updated: 22 de janeiro de 2022 — 09:20

Deixe um comentário

Baixar Bluray © 2019 Frontier Theme