Dragon Ball Filmes – Todos os Filmes

FICHA TÉCNICA

Título Original: Dragon Ball Filmes
Diretor: Toei Animation
Genero: Ação, Luta, Aventura
Ano de Lançamento: 1986 – 1989
Tipo de Áudio: Dublado
Legenda: Sem Legenda
Tamanho: 900 mb
Tempo de Duração: 45 minutos
Qualidade: BD-Rip 720p
Formato: MKV
Release: Gilgamesh
Servidor: BRupload

Sinopse: Todos os filmes da série Dragon Ball, quando GOKU era pequeno
Filme 1 – A Lenda de Shenlong
Filme 2 – A Bela adormecida no castelo do Diabo
Filme 3 – Aventura Mística
Filme 4 – Especial 10 anos – Em busca de poder
Filme 5 – O caminho do poder

banner

BAIXE SEM LIMITES NA VELOCIDADE MÁXIMA: CLIQUE AQUI

bannerPersonagem de Anime

Bluray 1080P

Download Dragon Ball Filmes [Dragon Ball Filmes] Bluray 1080P

Mediainfo Dragon Ball Filmes [Dragon Ball Filmes] Bluray 1080P

Spoiler

Video
ID : 1
Format : AVC
Format/Info : Advanced Video Codec
Format profile : [email protected]
Format settings : CABAC / 4 Ref Frames
Format settings, CABAC : Yes
Format settings, Reference : 4 frames
Codec ID : V_MPEG4/ISO/AVC
Duration : 45 min 54 s
Bit rate mode : Variable
Bit rate : 2 543 kb/s
Maximum bit rate : 7 500 kb/s
Width : 1 440 pixels
Height : 1 076 pixels
Display aspect ratio : 4:3
Frame rate mode : Constant
Frame rate : 23.976 (24000/1001) FPS
Color space : YUV
Chroma subsampling : 4:2:0
Bit depth : 8 bits
Scan type : Progressive
Bits/(Pixel*Frame) : 0.068
Stream size : 835 MiB (95%)
Title : Japonês
Language : Japanese
Default : Yes
Forced : No
Color range : Limited
Color primaries : BT.709
Transfer characteristics : BT.709
Matrix coefficients : BT.709

Audio
ID : 2
Format : AAC LC
Format/Info : Advanced Audio Codec Low Complexity
Codec ID : A_AAC-2
Duration : 45 min 54 s
Bit rate : 128 kb/s
Channel(s) : 2 channels
Channel layout : L R
Sampling rate : 48.0 kHz
Frame rate : 46.875 FPS (1024 SPF)
Compression mode : Lossy
Stream size : 42.1 MiB (5%)
Title : PT-BR 2.0
Language : Portuguese
Default : Yes
Forced : No

ASSISTA SEUS FILMES EM 4K SEMPRE PELO HD EXTERNO USB 3.0. CASO QUEIRA ASSISTIR PELO PC, UTILIZE O MEDIA PLAYER CLASSIC + MADVR, NUNCA EXECUTE PELO VLC PLAYER.

Updated: 22 de janeiro de 2022 — 09:20

1 Comment

Add a Comment
  1. Tinha faltado um filme galera, mas já adicionei as informações e o link.

Deixe um comentário

Baixar Bluray © 2019 Frontier Theme