Dragão Vermelho – UHD 2160P HDR-U – Dual Áudio

FICHA TÉCNICA

Título Original: Red Dragon
Diretor: Brett Ratner
Genero: Drama / Suspense
Ano de Lançamento: 2002
Idioma: Português/Inglês
Legenda: Embutida SRT (selecionável)
Tamanho: 58.7 GB
Tempo de Duração: 124 Minutos
Resolução: 3840 x 2160
Áudio Codec: AC3 5.1 / DTS-HD 5.1+AC3 5.1
Formato: MKV
Release: Hiro360
Servidor: BRupload

Sinopse: Baseado no livro de Thomas Harris, Dragão Vermelho faz parte da série de filmes sobre o psiquiatra canibal Hannibal Lecter. Esse filme retrata o médico antes de O Silêncio dos Inocentes.
Will Graham (Edward Norton) é um agente do FBI que por pouco não foi morto por Hannibal Lecter (Anthony Hopkins) quando tentava capturá-lo. Com Lecter já preso, Graham é obrigado a usar o psicopata como consultor para obter maiores informações sobre Francis Dolarhyde (Ralph Fiennes), um serial killer que tem deixado a cidade em pânico. Mas o que Graham não sabe é que ao mesmo tempo em que Lecter o auxilia em sua investigação também repassa ao próprio Dolarhyde informações sobre a família do policial que o persegue.

banner

banner

Spoiler

Video
ID : 1
Format : HEVC
Format/Info : High Efficiency Video Coding
HDR format : SMPTE ST 2086
Codec ID : V_MPEGH/ISO/HEVC
Duration : 2 h 4 min
Bit rate : 61.6 Mb/s
Width : 3 840 pixels
Height : 2 160 pixels
Display aspect ratio : 16:9
Frame rate mode : Constant
Frame rate : 23.976 (24000/1001) FPS
Bits/(Pixel*Frame) : 0.310
Time code of first frame : 00\:00\:00\:00
Time code source : Matroska tags
Stream size : 53.6 GiB (91%)
Title : BaixarBluray.net – Alta Definição é Aqui
Writing library : H.265 10-bit – Intel Quick Sync
Language : English
Default : Yes
Forced : No
Color range : Limited
Mastering display color primaries : BT.2020
Mastering display luminance : min: 0.0001 cd/m2, max: 10000 cd/m2
Maximum Content Light Level : 1000
Maximum Frame-Average Light Level : 400

Audio #1
ID : 2
Format : DTS XLL
Format/Info : Digital Theater Systems
Commercial name : DTS-HD Master Audio
Codec ID : A_DTS
Duration : 2 h 4 min
Bit rate mode : Variable
Bit rate : 4 204 kb/s
Channel(s) : 6 channels
Channel layout : C L R Ls Rs LFE
Sampling rate : 48.0 kHz
Frame rate : 93.750 FPS (512 SPF)
Bit depth : 24 bits
Compression mode : Lossless
Stream size : 3.65 GiB (6%)
Language : English
Default : Yes
Forced : No

Audio #2
ID : 3
Format : DTS
Format/Info : Digital Theater Systems
Codec ID : A_DTS
Duration : 2 h 4 min
Bit rate mode : Constant
Bit rate : 1 509 kb/s
Channel(s) : 6 channels
Channel layout : C L R Ls Rs LFE
Sampling rate : 48.0 kHz
Frame rate : 93.750 FPS (512 SPF)
Bit depth : 24 bits
Compression mode : Lossy
Stream size : 1.31 GiB (2%)
Language : English
Default : No
Forced : No

Audio #3
ID : 4
Format : AC-3
Format/Info : Audio Coding 3
Commercial name : Dolby Digital
Codec ID : A_AC3
Duration : 2 h 4 min
Bit rate mode : Constant
Bit rate : 192 kb/s
Channel(s) : 2 channels
Channel layout : L R
Sampling rate : 48.0 kHz
Frame rate : 31.250 FPS (1536 SPF)
Bit depth : 16 bits
Compression mode : Lossy
Stream size : 171 MiB (0%)
Language : Portuguese
Service kind : Complete Main
Default : No
Forced : No

Text
ID : 5
Format : UTF-8
Codec ID : S_TEXT/UTF8
Codec ID/Info : UTF-8 Plain Text
Duration : 1 h 58 min
Bit rate : 58 b/s
Count of elements : 1514
Stream size : 50.7 KiB (0%)
Language : Portuguese
Default : No
Forced : No

bannerAnthony Hopkins
Edward Norton
Ralph Fiennes
Harvey Keitel

Bluray 4K UHD 2160P HDR-U

banner

Updated: 18 de outubro de 2019 — 11:55

Deixe uma resposta

O seu endereço de e-mail não será publicado. Campos obrigatórios são marcados com *

Baixar Bluray © 2019 Frontier Theme